The Great S01E04

TV Series
The Great S01E04

The Great S01E04
WEB-DL | MKV | 1920x1080 | English | H264 @ 4445 kbps | E-AC-3 @ 256 kbps | 51 min 49 s | 1.70 GiB
Subtitles: Español, English
Genre: Comedy, Drama


A genre-bending, anti-historical ride through 18th century Russia following the rise of Catherine the Nothing to Catherine the Great and her explosive relationship with husband Peter, the emperor of Russia.

6e4cbda321e3f20e2304cfba20d6f0bd.mkv (1.7 GB)



General
Unique ID : 90369227114452493266814253607391720616 (0x43FC7AE4E3DC7DB0A12256817DB1F4A8)
Complete name : ./6e4cbda321e3f20e2304cfba20d6f0bd.mkv
Format : Matroska
Format version : Version 4 / Version 2
File size : 1.70 GiB
Duration : 51 min 49 s
Overall bit rate : 4 703 kb/s
Encoded date : UTC 2020-05-15 04:18:39
Writing application : mkvmerge v46.0.0 ('No Deeper Escape') 64-bit
Writing library : libebml v1.3.10 + libmatroska v1.5.2

Video
ID : 1
Format : AVC
Format/Info : Advanced Video Codec
Format profile : High@L4
Format settings : CABAC / 4 Ref Frames
Format settings, CABAC : Yes
Format settings, RefFrames : 4 frames
Codec ID : V_MPEG4/ISO/AVC
Duration : 51 min 49 s
Bit rate : 4 445 kb/s
Width : 1 920 pixels
Height : 1 080 pixels
Display aspect ratio : 16:9
Frame rate mode : Constant
Frame rate : 23.976 (24000/1001) FPS
Color space : YUV
Chroma subsampling : 4:2:0
Bit depth : 8 bits
Scan type : Progressive
Bits/(Pixel*Frame) : 0.089
Stream size : 1.61 GiB (95%)
Default : Yes
Forced : No

Audio
ID : 2
Format : E-AC-3
Format/Info : Enhanced Audio Coding 3
Format settings, Endianness : Big
Codec ID : A_EAC3
Duration : 51 min 49 s
Bit rate mode : Constant
Bit rate : 256 kb/s
Channel(s) : 6 channels
Channel positions : Front: L C R, Side: L R, LFE
Sampling rate : 48.0 kHz
Frame rate : 187.500 FPS (256 SPF)
Compression mode : Lossy
Stream size : 94.9 MiB (5%)
Language : English
Service kind : Complete Main
Default : Yes
Forced : No

Text #1
ID : 3
Format : UTF-8
Codec ID : S_TEXT/UTF8
Codec ID/Info : UTF-8 Plain Text
Duration : 51 min 42 s
Bit rate : 84 b/s
Count of elements : 961
Stream size : 32.0 KiB (0%)
Language : English
Default : No
Forced : No

Text #2
ID : 4
Format : UTF-8
Codec ID : S_TEXT/UTF8
Codec ID/Info : UTF-8 Plain Text
Duration : 49 min 50 s
Bit rate : 83 b/s
Count of elements : 877
Stream size : 30.4 KiB (0%)
Language : Spanish
Default : No
Forced : No





The Great S01E04


The Great S01E04


The Great S01E04


The Great S01E04


The Great S01E04