The Great S01E05

TV Series
The Great S01E05

The Great S01E05
WEB-DL | MKV | 3840x2160 | English | H265 @ 15352 kbps | E-AC-3 @ 256 kbps | 49 min 37 s | 5.41 GiB
Subtitles: Español, English
Genre: Comedy, Drama


A genre-bending, anti-historical ride through 18th century Russia following the rise of Catherine the Nothing to Catherine the Great and her explosive relationship with husband Peter, the emperor of Russia.

3990f9fed693d5058201e5985030e885.mkv (5.4 GB)



General
Unique ID : 127825932701424601341895479111559295786 (0x602A610FB47E7E4CD700B9AC7A1A332A)
Complete name : ./3990f9fed693d5058201e5985030e885.mkv
Format : Matroska
Format version : Version 4 / Version 2
File size : 5.41 GiB
Duration : 49 min 37 s
Overall bit rate : 15.6 Mb/s
Encoded date : UTC 2020-05-15 15:08:17
Writing application : mkvmerge v44.0.0 ('Domino') 64-bit
Writing library : libebml v1.3.10 + libmatroska v1.5.2

Video
ID : 1
Format : HEVC
Format/Info : High Efficiency Video Coding
Format profile : Main 10@L5.1@Main
Codec ID : V_MPEGH/ISO/HEVC
Duration : 49 min 37 s
Bit rate : 15.4 Mb/s
Width : 3 840 pixels
Height : 2 160 pixels
Display aspect ratio : 16:9
Frame rate mode : Constant
Frame rate : 23.976 (24000/1001) FPS
Color space : YUV
Chroma subsampling : 4:2:0
Bit depth : 10 bits
Bits/(Pixel*Frame) : 0.077
Stream size : 5.32 GiB (98%)
Default : Yes
Forced : No

Audio
ID : 2
Format : E-AC-3
Format/Info : Enhanced Audio Coding 3
Format settings, Endianness : Big
Codec ID : A_EAC3
Duration : 49 min 37 s
Bit rate mode : Constant
Bit rate : 256 kb/s
Channel(s) : 6 channels
Channel positions : Front: L C R, Side: L R, LFE
Sampling rate : 48.0 kHz
Frame rate : 187.500 FPS (256 SPF)
Compression mode : Lossy
Stream size : 90.9 MiB (2%)
Language : English
Service kind : Complete Main
Default : Yes
Forced : No

Text #1
ID : 3
Format : UTF-8
Codec ID : S_TEXT/UTF8
Codec ID/Info : UTF-8 Plain Text
Duration : 49 min 28 s
Bit rate : 70 b/s
Count of elements : 893
Stream size : 25.4 KiB (0%)
Language : English
Default : No
Forced : No

Text #2
ID : 4
Format : UTF-8
Codec ID : S_TEXT/UTF8
Codec ID/Info : UTF-8 Plain Text
Duration : 47 min 31 s
Bit rate : 68 b/s
Count of elements : 746
Stream size : 24.0 KiB (0%)
Language : Spanish
Default : No
Forced : No





The Great S01E05


The Great S01E05


The Great S01E05


The Great S01E05


The Great S01E05