The Great S01E06

TV Series
The Great S01E06

The Great S01E06
WEBRip | MKV | 3840x2160 | English | H265 @ 15400 kbps | E-AC-3 @ 256 kbps | 54 min 37 s | 5.97 GiB
Subtitles: Español, English
Genre: Comedy, Drama


A genre-bending, anti-historical ride through 18th century Russia following the rise of Catherine the Nothing to Catherine the Great and her explosive relationship with husband Peter, the emperor of Russia.

421e2e69e34c0159262a399f88342511.mkv (6.0 GB)



General
Unique ID : 273738576090936951891970841200013584591 (0xCDF021CEDD36CDC45E584875518BA8CF)
Complete name : ./421e2e69e34c0159262a399f88342511.mkv
Format : Matroska
Format version : Version 4 / Version 2
File size : 5.97 GiB
Duration : 54 min 37 s
Overall bit rate : 15.7 Mb/s
Encoded date : UTC 2020-05-15 05:20:58
Writing application : mkvmerge v44.0.0 ('Domino') 64-bit
Writing library : libebml v1.3.10 + libmatroska v1.5.2

Video
ID : 1
Format : HEVC
Format/Info : High Efficiency Video Coding
Format profile : Main 10@L5.1@Main
Codec ID : V_MPEGH/ISO/HEVC
Duration : 54 min 37 s
Bit rate : 15.4 Mb/s
Width : 3 840 pixels
Height : 2 160 pixels
Display aspect ratio : 16:9
Frame rate mode : Constant
Frame rate : 23.976 (24000/1001) FPS
Color space : YUV
Chroma subsampling : 4:2:0
Bit depth : 10 bits
Bits/(Pixel*Frame) : 0.077
Stream size : 5.88 GiB (98%)
Language : English
Default : Yes
Forced : No

Audio
ID : 2
Format : E-AC-3
Format/Info : Enhanced Audio Coding 3
Format settings, Endianness : Big
Codec ID : A_EAC3
Duration : 54 min 37 s
Bit rate mode : Constant
Bit rate : 256 kb/s
Channel(s) : 6 channels
Channel positions : Front: L C R, Side: L R, LFE
Sampling rate : 48.0 kHz
Frame rate : 187.500 FPS (256 SPF)
Compression mode : Lossy
Stream size : 100 MiB (2%)
Language : English
Service kind : Complete Main
Default : Yes
Forced : No

Text #1
ID : 3
Format : UTF-8
Codec ID : S_TEXT/UTF8
Codec ID/Info : UTF-8 Plain Text
Duration : 54 min 29 s
Bit rate : 74 b/s
Count of elements : 1032
Stream size : 29.7 KiB (0%)
Title : English
Language : English
Default : No
Forced : No

Text #2
ID : 4
Format : UTF-8
Codec ID : S_TEXT/UTF8
Codec ID/Info : UTF-8 Plain Text
Duration : 52 min 34 s
Bit rate : 70 b/s
Count of elements : 876
Stream size : 27.2 KiB (0%)
Title : Spanish; Castilian
Language : Spanish
Default : No
Forced : No





The Great S01E06


The Great S01E06


The Great S01E06


The Great S01E06


The Great S01E06