The Great S01E07

TV Series
The Great S01E07

The Great S01E07
WEB-DL | MKV | 1920x1080 | English | H264 @ 4369 kbps | E-AC-3 @ 256 kbps | 50 min 53 s | 1.64 GiB
Subtitles: Español, English
Genre: Comedy, Drama


A genre-bending, anti-historical ride through 18th century Russia following the rise of Catherine the Nothing to Catherine the Great and her explosive relationship with husband Peter, the emperor of Russia.

8d0d752610b558981ee1ffb5eefec321.mkv (1.6 GB)



General
Unique ID : 291894917649655113097292273740961395515 (0xDB98EA8F76DD4920B4F6AE6F43B1B33B)
Complete name : ./8d0d752610b558981ee1ffb5eefec321.mkv
Format : Matroska
Format version : Version 4 / Version 2
File size : 1.64 GiB
Duration : 50 min 53 s
Overall bit rate : 4 628 kb/s
Encoded date : UTC 2020-05-15 04:25:43
Writing application : mkvmerge v46.0.0 ('No Deeper Escape') 64-bit
Writing library : libebml v1.3.10 + libmatroska v1.5.2

Video
ID : 1
Format : AVC
Format/Info : Advanced Video Codec
Format profile : High@L4
Format settings : CABAC / 4 Ref Frames
Format settings, CABAC : Yes
Format settings, RefFrames : 4 frames
Codec ID : V_MPEG4/ISO/AVC
Duration : 50 min 53 s
Bit rate : 4 370 kb/s
Width : 1 920 pixels
Height : 1 080 pixels
Display aspect ratio : 16:9
Frame rate mode : Constant
Frame rate : 23.976 (24000/1001) FPS
Color space : YUV
Chroma subsampling : 4:2:0
Bit depth : 8 bits
Scan type : Progressive
Bits/(Pixel*Frame) : 0.088
Stream size : 1.55 GiB (94%)
Default : Yes
Forced : No

Audio
ID : 2
Format : E-AC-3
Format/Info : Enhanced Audio Coding 3
Format settings, Endianness : Big
Codec ID : A_EAC3
Duration : 50 min 53 s
Bit rate mode : Constant
Bit rate : 256 kb/s
Channel(s) : 6 channels
Channel positions : Front: L C R, Side: L R, LFE
Sampling rate : 48.0 kHz
Frame rate : 187.500 FPS (256 SPF)
Compression mode : Lossy
Stream size : 93.2 MiB (6%)
Language : English
Service kind : Complete Main
Default : Yes
Forced : No

Text #1
ID : 3
Format : UTF-8
Codec ID : S_TEXT/UTF8
Codec ID/Info : UTF-8 Plain Text
Duration : 50 min 46 s
Bit rate : 91 b/s
Count of elements : 1028
Stream size : 34.1 KiB (0%)
Language : English
Default : No
Forced : No

Text #2
ID : 4
Format : UTF-8
Codec ID : S_TEXT/UTF8
Codec ID/Info : UTF-8 Plain Text
Duration : 48 min 49 s
Bit rate : 94 b/s
Count of elements : 918
Stream size : 33.7 KiB (0%)
Language : Spanish
Default : No
Forced : No





The Great S01E07


The Great S01E07


The Great S01E07


The Great S01E07


The Great S01E07