The Last Kingdom S01E04

TV Series
The Last Kingdom S01E04

The Last Kingdom S01E04
BDRip | MKV | 1920x1080 | English | H265 @ 5534 kbps | E-AC-3 @ 448 kbps | 57 min 11 s | 2.39 GiB
Subtitles: English
Genre: Drama


A show of heroic deeds and epic battles with a thematic depth that embraces politics, religion, warfare, courage, love, loyalty and our universal search for identity. Combining real historical figures and events with fictional characters, it is the story of how a people combined their strength under one of the most iconic kings of history in order to reclaim their land for themselves and build a place they call home.

f4fa2fe04dd1e1e2fc8e0dc8dcea2516.mkv (2.4 GB)



General
Unique ID : 234062388720977508071796998079567947116 (0xB016C6BD83930D0CA667CC45FE8CE56C)
Complete name : ./f4fa2fe04dd1e1e2fc8e0dc8dcea2516.mkv
Format : Matroska
Format version : Version 2
File size : 2.39 GiB
Duration : 57 min 11 s
Overall bit rate : 5 994 kb/s
Movie name : The.Last.Kingdom.S01.E04.BluRay.10Bit.1080p.DDP5.1.H265-d3g
Encoded date : UTC 2020-08-16 19:41:19
Writing application : DVDFab 11.1.0.3
Writing library : libebml v1.3.4 + libmatroska v1.4.5

Video
ID : 1
Format : HEVC
Format/Info : High Efficiency Video Coding
Format profile : Main 10@L4@Main
Codec ID : V_MPEGH/ISO/HEVC
Duration : 57 min 11 s
Bit rate : 5 534 kb/s
Width : 1 920 pixels
Height : 1 080 pixels
Display aspect ratio : 16:9
Frame rate mode : Constant
Frame rate : 23.976 (24000/1001) FPS
Color space : YUV
Chroma subsampling : 4:2:0
Bit depth : 10 bits
Bits/(Pixel*Frame) : 0.111
Stream size : 2.21 GiB (92%)
Default : Yes
Forced : No
Color range : Limited
Color primaries : BT.709
Transfer characteristics : BT.709
Matrix coefficients : BT.709

Audio
ID : 2
Format : E-AC-3
Format/Info : Enhanced Audio Coding 3
Format settings, Endianness : Big
Codec ID : A_EAC3
Duration : 57 min 11 s
Bit rate mode : Constant
Bit rate : 448 kb/s
Channel(s) : 6 channels
Channel positions : Front: L C R, Side: L R, LFE
Sampling rate : 48.0 kHz
Frame rate : 187.500 FPS (256 SPF)
Compression mode : Lossy
Stream size : 183 MiB (7%)
Language : English
Service kind : Complete Main
Default : Yes
Forced : No

Text
ID : 3
Format : VobSub
Codec ID : S_VOBSUB
Codec ID/Info : Picture based subtitle format used on DVDs
Duration : 55 min 14 s
Bit rate : 10.6 kb/s
Count of elements : 766
Stream size : 4.17 MiB (0%)
Language : English
Default : Yes
Forced : No

Menu
00:00:00.000 : en:00:00:00.000
00:01:42.480 : en:00:01:42.480
00:15:03.560 : en:00:15:03.560
00:25:18.600 : en:00:25:18.600
00:35:11.000 : en:00:35:11.000
00:45:31.040 : en:00:45:31.040
00:56:37.800 : en:00:56:37.800





The Last Kingdom S01E04


The Last Kingdom S01E04


The Last Kingdom S01E04


The Last Kingdom S01E04


The Last Kingdom S01E04