The Last Kingdom S04E02

TV Series
The Last Kingdom S04E02

The Last Kingdom S04E02
WEBRip | MKV | 1920x1080 | English | H264 @ 3949 kbps | E-AC-3 @ 640 kbps | 55 min 58 s | 1.80 GiB
Subtitles: ภาษาไทย, Français, tiếng Việt, Español, Magyar, 日本語, 한국어, Русский, Bahasa Indonesia, Dansk, Nederlands, Bokmål, 中文, Suomi, Türkçe, English, हिन्दी, Română, العربية, Deutsch, Українська, Svenska, Italiano, Português, Čeština
Genre: Drama


A show of heroic deeds and epic battles with a thematic depth that embraces politics, religion, warfare, courage, love, loyalty and our universal search for identity. Combining real historical figures and events with fictional characters, it is the story of how a people combined their strength under one of the most iconic kings of history in order to reclaim their land for themselves and build a place they call home.

e163f7dfa397b86d59edd4f95536cc0e.mkv (1.8 GB)



General
Unique ID : 67181329772606691530947590721891869583 (0x328AA749E4D7C22F55D2654327BA238F)
Complete name : ./e163f7dfa397b86d59edd4f95536cc0e.mkv
Format : Matroska
Format version : Version 4 / Version 2
File size : 1.80 GiB
Duration : 55 min 58 s
Overall bit rate mode : Variable
Overall bit rate : 4 594 kb/s
Encoded date : UTC 2020-04-26 07:02:12
Writing application : mkvmerge v44.0.0 ('Domino') 64-bit
Writing library : libebml v1.3.10 + libmatroska v1.5.2

Video
ID : 1
Format : AVC
Format/Info : Advanced Video Codec
Format profile : High@L4
Format settings : CABAC / 4 Ref Frames
Format settings, CABAC : Yes
Format settings, RefFrames : 4 frames
Codec ID : V_MPEG4/ISO/AVC
Duration : 55 min 57 s
Bit rate mode : Variable
Bit rate : 3 950 kb/s
Maximum bit rate : 20.0 Mb/s
Width : 1 920 pixels
Height : 1 080 pixels
Display aspect ratio : 16:9
Frame rate mode : Constant
Frame rate : 25.000 FPS
Color space : YUV
Chroma subsampling : 4:2:0
Bit depth : 8 bits
Scan type : Progressive
Bits/(Pixel*Frame) : 0.076
Stream size : 1.54 GiB (86%)
Writing library : x264 core 148 r2717 0d2410d
Encoding settings : cabac=1 / ref=4 / deblock=1:0:0 / analyse=0x3:0x111 / me=umh / subme=10 / psy=1 / psy_rd=1.00:0.00 / mixed_ref=1 / me_range=120 / chroma_me=1 / trellis=2 / 8x8dct=1 / cqm=0 / deadzone=21,11 / fast_pskip=1 / chroma_qp_offset=-2 / threads=6 / lookahead_threads=1 / sliced_threads=0 / nr=0 / decimate=1 / interlaced=0 / bluray_compat=0 / stitchable=1 / constrained_intra=0 / bframes=16 / b_pyramid=2 / b_adapt=2 / b_bias=0 / direct=3 / weightb=1 / open_gop=0 / weightp=2 / keyint=250 / keyint_min=126 / scenecut=0 / intra_refresh=0 / rc_lookahead=250 / rc=crf / mbtree=1 / crf=16.0 / qcomp=0.50 / qpmin=6 / qpmax=51 / qpstep=4 / vbv_maxrate=20000 / vbv_bufsize=25000 / crf_max=0.0 / nal_hrd=vbr / filler=0 / ip_ratio=1.40 / aq=1:0.80
Default : Yes
Forced : No

Audio
ID : 2
Format : E-AC-3
Format/Info : Enhanced Audio Coding 3
Format settings, Endianness : Big
Codec ID : A_EAC3
Duration : 55 min 58 s
Bit rate mode : Constant
Bit rate : 640 kb/s
Channel(s) : 6 channels
Channel positions : Front: L C R, Side: L R, LFE
Sampling rate : 48.0 kHz
Frame rate : 187.500 FPS (256 SPF)
Compression mode : Lossy
Stream size : 256 MiB (14%)
Title : English
Language : English
Service kind : Complete Main
Default : Yes
Forced : No

Text #1
ID : 3
Format : UTF-8
Codec ID : S_TEXT/UTF8
Codec ID/Info : UTF-8 Plain Text
Duration : 54 min 45 s
Bit rate : 64 b/s
Count of elements : 743
Stream size : 25.9 KiB (0%)
Title : English
Language : English
Default : No
Forced : No

Text #2
ID : 4
Format : UTF-8
Codec ID : S_TEXT/UTF8
Codec ID/Info : UTF-8 Plain Text
Duration : 54 min 55 s
Bit rate : 92 b/s
Count of elements : 643
Stream size : 37.4 KiB (0%)
Title : Arabic
Language : Arabic
Default : No
Forced : No

Text #3
ID : 5
Format : UTF-8
Codec ID : S_TEXT/UTF8
Codec ID/Info : UTF-8 Plain Text
Duration : 54 min 55 s
Bit rate : 59 b/s
Count of elements : 642
Stream size : 24.1 KiB (0%)
Title : Simplified Chinese
Language : Chinese
Default : No
Forced : No

Text #4
ID : 6
Format : UTF-8
Codec ID : S_TEXT/UTF8
Codec ID/Info : UTF-8 Plain Text
Duration : 54 min 55 s
Bit rate : 57 b/s
Count of elements : 642
Stream size : 23.0 KiB (0%)
Title : Traditional Chinese
Language : Chinese
Default : No
Forced : No

Text #5
ID : 7
Format : UTF-8
Codec ID : S_TEXT/UTF8
Codec ID/Info : UTF-8 Plain Text
Duration : 54 min 55 s
Bit rate : 51 b/s
Count of elements : 637
Stream size : 20.7 KiB (0%)
Title : Czech
Language : Czech
Default : No
Forced : No

Text #6
ID : 8
Format : UTF-8
Codec ID : S_TEXT/UTF8
Codec ID/Info : UTF-8 Plain Text
Duration : 54 min 55 s
Bit rate : 55 b/s
Count of elements : 569
Stream size : 22.4 KiB (0%)
Title : Danish
Language : Danish
Default : No
Forced : No

Text #7
ID : 9
Format : UTF-8
Codec ID : S_TEXT/UTF8
Codec ID/Info : UTF-8 Plain Text
Duration : 54 min 55 s
Bit rate : 52 b/s
Count of elements : 612
Stream size : 21.2 KiB (0%)
Title : Dutch
Language : Dutch
Default : No
Forced : No

Text #8
ID : 10
Format : UTF-8
Codec ID : S_TEXT/UTF8
Codec ID/Info : UTF-8 Plain Text
Duration : 54 min 50 s
Bit rate : 55 b/s
Count of elements : 624
Stream size : 22.4 KiB (0%)
Title : Finnish
Language : Finnish
Default : No
Forced : No

Text #9
ID : 11
Format : UTF-8
Codec ID : S_TEXT/UTF8
Codec ID/Info : UTF-8 Plain Text
Duration : 54 min 55 s
Bit rate : 52 b/s
Count of elements : 639
Stream size : 21.3 KiB (0%)
Title : French
Language : French
Default : No
Forced : No

Text #10
ID : 12
Format : UTF-8
Codec ID : S_TEXT/UTF8
Codec ID/Info : UTF-8 Plain Text
Duration : 54 min 55 s
Bit rate : 57 b/s
Count of elements : 619
Stream size : 23.0 KiB (0%)
Title : German
Language : German
Default : No
Forced : No

Text #11
ID : 13
Format : UTF-8
Codec ID : S_TEXT/UTF8
Codec ID/Info : UTF-8 Plain Text
Duration : 54 min 55 s
Bit rate : 156 b/s
Count of elements : 638
Stream size : 63.1 KiB (0%)
Title : Hindi
Language : Hindi
Default : No
Forced : No

Text #12
ID : 14
Format : UTF-8
Codec ID : S_TEXT/UTF8
Codec ID/Info : UTF-8 Plain Text
Duration : 54 min 55 s
Bit rate : 55 b/s
Count of elements : 635
Stream size : 22.5 KiB (0%)
Title : Hungarian
Language : Hungarian
Default : No
Forced : No

Text #13
ID : 15
Format : UTF-8
Codec ID : S_TEXT/UTF8
Codec ID/Info : UTF-8 Plain Text
Duration : 54 min 55 s
Bit rate : 53 b/s
Count of elements : 636
Stream size : 21.5 KiB (0%)
Title : Indonesian
Language : Indonesian
Default : No
Forced : No

Text #14
ID : 16
Format : UTF-8
Codec ID : S_TEXT/UTF8
Codec ID/Info : UTF-8 Plain Text
Duration : 54 min 55 s
Bit rate : 54 b/s
Count of elements : 630
Stream size : 21.8 KiB (0%)
Title : Italian
Language : Italian
Default : No
Forced : No

Text #15
ID : 17
Format : UTF-8
Codec ID : S_TEXT/UTF8
Codec ID/Info : UTF-8 Plain Text
Duration : 54 min 55 s
Bit rate : 52 b/s
Count of elements : 672
Stream size : 21.2 KiB (0%)
Title : Japanese
Language : Japanese
Default : No
Forced : No

Text #16
ID : 18
Format : UTF-8
Codec ID : S_TEXT/UTF8
Codec ID/Info : UTF-8 Plain Text
Duration : 54 min 55 s
Bit rate : 76 b/s
Count of elements : 656
Stream size : 30.6 KiB (0%)
Title : Korean
Language : Korean
Default : No
Forced : No

Text #17
ID : 19
Format : UTF-8
Codec ID : S_TEXT/UTF8
Codec ID/Info : UTF-8 Plain Text
Duration : 54 min 55 s
Bit rate : 55 b/s
Count of elements : 639
Stream size : 22.2 KiB (0%)
Title : Malay
Language : Malay
Default : No
Forced : No

Text #18
ID : 20
Format : UTF-8
Codec ID : S_TEXT/UTF8
Codec ID/Info : UTF-8 Plain Text
Duration : 54 min 55 s
Bit rate : 44 b/s
Count of elements : 478
Stream size : 18.0 KiB (0%)
Title : Norwegian
Language : Norwegian Bokmal
Default : No
Forced : No

Text #19
ID : 21
Format : UTF-8
Codec ID : S_TEXT/UTF8
Codec ID/Info : UTF-8 Plain Text
Duration : 54 min 55 s
Bit rate : 56 b/s
Count of elements : 640
Stream size : 22.6 KiB (0%)
Title : Portuguese
Language : Portuguese
Default : No
Forced : No

Text #20
ID : 22
Format : UTF-8
Codec ID : S_TEXT/UTF8
Codec ID/Info : UTF-8 Plain Text
Duration : 54 min 55 s
Bit rate : 54 b/s
Count of elements : 636
Stream size : 22.1 KiB (0%)
Title : Brazilian Portuguese
Language : Portuguese
Default : No
Forced : No

Text #21
ID : 23
Format : UTF-8
Codec ID : S_TEXT/UTF8
Codec ID/Info : UTF-8 Plain Text
Duration : 54 min 55 s
Bit rate : 63 b/s
Count of elements : 636
Stream size : 25.7 KiB (0%)
Title : Romanian
Language : Romanian
Default : No
Forced : No

Text #22
ID : 24
Format : UTF-8
Codec ID : S_TEXT/UTF8
Codec ID/Info : UTF-8 Plain Text
Duration : 54 min 55 s
Bit rate : 96 b/s
Count of elements : 644
Stream size : 38.9 KiB (0%)
Title : Russian
Language : Russian
Default : No
Forced : No

Text #23
ID : 25
Format : UTF-8
Codec ID : S_TEXT/UTF8
Codec ID/Info : UTF-8 Plain Text
Duration : 54 min 55 s
Bit rate : 52 b/s
Count of elements : 636
Stream size : 21.0 KiB (0%)
Title : Latin America Spanish
Language : Spanish
Default : No
Forced : No

Text #24
ID : 26
Format : UTF-8
Codec ID : S_TEXT/UTF8
Codec ID/Info : UTF-8 Plain Text
Duration : 54 min 55 s
Bit rate : 52 b/s
Count of elements : 636
Stream size : 21.3 KiB (0%)
Title : European Spanish
Language : Spanish
Default : No
Forced : No

Text #25
ID : 27
Format : UTF-8
Codec ID : S_TEXT/UTF8
Codec ID/Info : UTF-8 Plain Text
Duration : 54 min 55 s
Bit rate : 54 b/s
Count of elements : 627
Stream size : 22.0 KiB (0%)
Title : Swedish
Language : Swedish
Default : No
Forced : No

Text #26
ID : 28
Format : UTF-8
Codec ID : S_TEXT/UTF8
Codec ID/Info : UTF-8 Plain Text
Duration : 54 min 55 s
Bit rate : 156 b/s
Count of elements : 646
Stream size : 63.1 KiB (0%)
Title : Thai
Language : Thai
Default : No
Forced : No

Text #27
ID : 29
Format : UTF-8
Codec ID : S_TEXT/UTF8
Codec ID/Info : UTF-8 Plain Text
Duration : 54 min 55 s
Bit rate : 54 b/s
Count of elements : 640
Stream size : 21.9 KiB (0%)
Title : Turkish
Language : Turkish
Default : No
Forced : No

Text #28
ID : 30
Format : UTF-8
Codec ID : S_TEXT/UTF8
Codec ID/Info : UTF-8 Plain Text
Duration : 54 min 55 s
Bit rate : 88 b/s
Count of elements : 642
Stream size : 35.6 KiB (0%)
Title : Ukrainian
Language : Ukrainian
Default : No
Forced : No

Text #29
ID : 31
Format : UTF-8
Codec ID : S_TEXT/UTF8
Codec ID/Info : UTF-8 Plain Text
Duration : 54 min 55 s
Bit rate : 78 b/s
Count of elements : 636
Stream size : 31.5 KiB (0%)
Title : Vietnamese
Language : Vietnamese
Default : No
Forced : No





The Last Kingdom S04E02


The Last Kingdom S04E02


The Last Kingdom S04E02


The Last Kingdom S04E02


The Last Kingdom S04E02