The Last Kingdom S04E06

TV Series
The Last Kingdom S04E06

The Last Kingdom S04E06
WEBRip | MKV | 1920x1080 | English | H265 @ 2736 kbps | E-AC-3 @ 640 kbps | 53 min 12 s | 1.26 GiB
Subtitles: English
Genre: Drama


A show of heroic deeds and epic battles with a thematic depth that embraces politics, religion, warfare, courage, love, loyalty and our universal search for identity. Combining real historical figures and events with fictional characters, it is the story of how a people combined their strength under one of the most iconic kings of history in order to reclaim their land for themselves and build a place they call home.

f981bf6b7e96750c2878146cbf2476f7.mkv (1.3 GB)



General
Unique ID : 184182499797800752397339557340833657888 (0x8A9042584304B8E48ABC93DEED583420)
Complete name : ./f981bf6b7e96750c2878146cbf2476f7.mkv
Format : Matroska
Format version : Version 2
File size : 1.26 GiB
Duration : 53 min 12 s
Overall bit rate : 3 389 kb/s
Movie name : The.Last.Kingdom.S04E06.WEBRip.1080p.DD+5.1.H265-d3g
Encoded date : UTC 2020-04-26 18:33:21
Writing application : DVDFab 10.0.9.2
Writing library : libebml v1.3.4 + libmatroska v1.4.5

Video
ID : 1
Format : HEVC
Format/Info : High Efficiency Video Coding
Format profile : Main 10@L4@Main
Codec ID : V_MPEGH/ISO/HEVC
Duration : 53 min 12 s
Bit rate : 2 737 kb/s
Width : 1 920 pixels
Height : 1 080 pixels
Display aspect ratio : 16:9
Frame rate mode : Constant
Frame rate : 23.976 (24000/1001) FPS
Color space : YUV
Chroma subsampling : 4:2:0
Bit depth : 10 bits
Bits/(Pixel*Frame) : 0.055
Stream size : 1.02 GiB (81%)
Default : Yes
Forced : No
Color range : Limited
Color primaries : BT.709
Transfer characteristics : BT.709
Matrix coefficients : BT.709

Audio
ID : 2
Format : E-AC-3
Format/Info : Enhanced Audio Coding 3
Format settings, Endianness : Big
Codec ID : A_EAC3
Duration : 53 min 12 s
Bit rate mode : Constant
Bit rate : 640 kb/s
Channel(s) : 6 channels
Channel positions : Front: L C R, Side: L R, LFE
Sampling rate : 48.0 kHz
Frame rate : 187.500 FPS (256 SPF)
Compression mode : Lossy
Stream size : 244 MiB (19%)
Language : English
Service kind : Complete Main
Default : Yes
Forced : No

Text
ID : 3
Format : VobSub
Codec ID : S_VOBSUB
Codec ID/Info : Picture based subtitle format used on DVDs
Duration : 51 min 56 s
Bit rate : 10.7 kb/s
Count of elements : 669
Stream size : 3.98 MiB (0%)
Language : English
Default : No
Forced : No





The Last Kingdom S04E06


The Last Kingdom S04E06


The Last Kingdom S04E06


The Last Kingdom S04E06


The Last Kingdom S04E06