The Last Kingdom S04E07

TV Series
The Last Kingdom S04E07

The Last Kingdom S04E07
BDRip | MKV | 1920x1080 | English | H264 @ 13287 kbps | DTS | 53 min 37 s | 5.76 GiB
Subtitles: English
Genre: Drama


A show of heroic deeds and epic battles with a thematic depth that embraces politics, religion, warfare, courage, love, loyalty and our universal search for identity. Combining real historical figures and events with fictional characters, it is the story of how a people combined their strength under one of the most iconic kings of history in order to reclaim their land for themselves and build a place they call home.

e9f480ede6cd097b86ea46b0ddfdd3a3.mkv (5.8 GB)



General
Unique ID : 295175491881691973720330459810420246426 (0xDE10BB5B98FB36E11273A85B0704479A)
Complete name : ./e9f480ede6cd097b86ea46b0ddfdd3a3.mkv
Format : Matroska
Format version : Version 4 / Version 2
File size : 5.76 GiB
Duration : 53 min 37 s
Overall bit rate : 15.4 Mb/s
Encoded date : UTC 2020-08-13 21:49:59
Writing application : mkvmerge v46.0.0 ('No Deeper Escape') 64-bit
Writing library : libebml v1.3.10 + libmatroska v1.5.2

Video
ID : 1
Format : AVC
Format/Info : Advanced Video Codec
Format profile : High@L4.1
Format settings : CABAC / 4 Ref Frames
Format settings, CABAC : Yes
Format settings, RefFrames : 4 frames
Codec ID : V_MPEG4/ISO/AVC
Duration : 53 min 37 s
Bit rate : 13.3 Mb/s
Width : 1 920 pixels
Height : 1 080 pixels
Display aspect ratio : 16:9
Frame rate mode : Constant
Frame rate : 23.976 (24000/1001) FPS
Color space : YUV
Chroma subsampling : 4:2:0
Bit depth : 8 bits
Scan type : Progressive
Bits/(Pixel*Frame) : 0.267
Stream size : 4.98 GiB (86%)
Writing library : x264 core 161 r3018 db0d417
Encoding settings : cabac=1 / ref=4 / deblock=1:-3:-3 / analyse=0x3:0x133 / me=umh / subme=9 / psy=1 / psy_rd=1.00:0.00 / mixed_ref=1 / me_range=16 / chroma_me=1 / trellis=2 / 8x8dct=1 / cqm=0 / deadzone=21,11 / fast_pskip=1 / chroma_qp_offset=-4 / threads=18 / lookahead_threads=16 / sliced_threads=0 / nr=0 / decimate=1 / interlaced=0 / bluray_compat=0 / constrained_intra=0 / bframes=3 / b_pyramid=2 / b_adapt=2 / b_bias=0 / direct=3 / weightb=1 / open_gop=0 / weightp=2 / keyint=250 / keyint_min=24 / scenecut=40 / intra_refresh=0 / rc_lookahead=60 / rc=crf / mbtree=1 / crf=16.0 / qcomp=0.60 / qpmin=0 / qpmax=69 / qpstep=4 / ip_ratio=1.40 / aq=1:1.00
Default : Yes
Forced : No

Audio
ID : 2
Format : DTS
Format/Info : Digital Theater Systems
Format profile : MA / Core
Mode : 16
Format settings, Endianness : Big
Codec ID : A_DTS
Duration : 53 min 37 s
Bit rate mode : Variable / Constant
Bit rate : 2 048 kb/s / 1 509 kb/s
Channel(s) : 6 channels
Channel positions : Front: L C R, Side: L R, LFE
Sampling rate : 48.0 kHz
Frame rate : 93.750 FPS (512 SPF)
Bit depth : 16 bits
Compression mode : Lossless / Lossy
Stream size : 796 MiB (13%)
Language : English
Default : No
Forced : No

Text
ID : 3
Format : PGS
Muxing mode : zlib
Codec ID : S_HDMV/PGS
Codec ID/Info : Picture based subtitle format used on BDs/HD-DVDs
Duration : 53 min 0 s
Bit rate : 43.9 kb/s
Count of elements : 1320
Stream size : 16.7 MiB (0%)
Language : English
Default : No
Forced : No

Menu
00:00:00.000 : en:Chapter 01
00:02:06.626 : en:Chapter 02
00:11:12.922 : en:Chapter 03
00:27:35.820 : en:Chapter 04
00:38:37.857 : en:Chapter 05
00:48:40.542 : en:Chapter 06





The Last Kingdom S04E07


The Last Kingdom S04E07


The Last Kingdom S04E07


The Last Kingdom S04E07


The Last Kingdom S04E07