The Right Stuff S01E02

TV Series
The Right Stuff S01E02

The Right Stuff S01E02
WEB-DL | MKV | 1280x720 | Français / Deutsch / Español / Italiano / English / Português | H264 @ 4158 kbps | E-AC-3 @ 256 kbps | 44 min 32 s | 1.89 GiB
Subtitles: Français, Deutsch, Suomi, Español, Polski, Italiano, Nederlands, Svenska, Dansk, English, Português
Genre: Drama


At the height of the Cold War, newly formed NASA selects seven of the military’s best test pilots to become astronauts. Competing to be the first in space, these men achieve the extraordinary, inspiring the world to turn towards a new horizon of ambition and hope.

713f396e2ff251b5553cda21ed09678c.mkv (1.9 GB)



General
Unique ID : 118661966439062250819355576923017202951 (0x594576A42AB25321C9C2256E1DF04D07)
Complete name : ./713f396e2ff251b5553cda21ed09678c.mkv
Format : Matroska
Format version : Version 4 / Version 2
File size : 1.89 GiB
Duration : 44 min 32 s
Overall bit rate mode : Variable
Overall bit rate : 6 081 kb/s
Encoded date : UTC 2020-10-11 08:37:17
Writing application : mkvmerge v43.0.0 ('The Quartermaster') 64-bit
Writing library : libebml v1.3.10 + libmatroska v1.5.2

Video
ID : 1
Format : AVC
Format/Info : Advanced Video Codec
Format profile : High@L3.1
Format settings : CABAC / 4 Ref Frames
Format settings, CABAC : Yes
Format settings, RefFrames : 4 frames
Codec ID : V_MPEG4/ISO/AVC
Duration : 44 min 32 s
Bit rate mode : Variable
Bit rate : 4 158 kb/s
Maximum bit rate : 6 375 kb/s
Width : 1 280 pixels
Height : 720 pixels
Display aspect ratio : 16:9
Frame rate mode : Constant
Frame rate : 23.976 (24000/1001) FPS
Color space : YUV
Chroma subsampling : 4:2:0
Bit depth : 8 bits
Scan type : Progressive
Bits/(Pixel*Frame) : 0.188
Stream size : 1.29 GiB (68%)
Default : Yes
Forced : No
Color range : Limited
Color primaries : BT.709
Transfer characteristics : BT.709
Matrix coefficients : BT.709

Audio #1
ID : 2
Format : E-AC-3
Format/Info : Enhanced Audio Coding 3
Format settings, Endianness : Big
Codec ID : A_EAC3
Duration : 44 min 32 s
Bit rate mode : Constant
Bit rate : 256 kb/s
Channel(s) : 6 channels
Channel positions : Front: L C R, Side: L R, LFE
Sampling rate : 48.0 kHz
Frame rate : 187.500 FPS (256 SPF)
Compression mode : Lossy
Stream size : 81.6 MiB (4%)
Title : English
Language : English
Service kind : Complete Main
Default : Yes
Forced : No

Audio #2
ID : 3
Format : E-AC-3
Format/Info : Enhanced Audio Coding 3
Format settings, Endianness : Big
Codec ID : A_EAC3
Duration : 44 min 32 s
Bit rate mode : Constant
Bit rate : 256 kb/s
Channel(s) : 6 channels
Channel positions : Front: L C R, Side: L R, LFE
Sampling rate : 48.0 kHz
Frame rate : 187.500 FPS (256 SPF)
Compression mode : Lossy
Stream size : 81.6 MiB (4%)
Title : Castilian
Language : Spanish
Service kind : Complete Main
Default : No
Forced : No

Audio #3
ID : 4
Format : E-AC-3
Format/Info : Enhanced Audio Coding 3
Format settings, Endianness : Big
Codec ID : A_EAC3
Duration : 44 min 32 s
Bit rate mode : Constant
Bit rate : 256 kb/s
Channel(s) : 6 channels
Channel positions : Front: L C R, Side: L R, LFE
Sampling rate : 48.0 kHz
Frame rate : 187.500 FPS (256 SPF)
Compression mode : Lossy
Stream size : 81.6 MiB (4%)
Title : Spanish
Language : Spanish
Service kind : Complete Main
Default : No
Forced : No

Audio #4
ID : 5
Format : E-AC-3
Format/Info : Enhanced Audio Coding 3
Format settings, Endianness : Big
Codec ID : A_EAC3
Duration : 44 min 32 s
Bit rate mode : Constant
Bit rate : 256 kb/s
Channel(s) : 6 channels
Channel positions : Front: L C R, Side: L R, LFE
Sampling rate : 48.0 kHz
Frame rate : 187.500 FPS (256 SPF)
Compression mode : Lossy
Stream size : 81.6 MiB (4%)
Title : French
Language : French
Service kind : Complete Main
Default : No
Forced : No

Audio #5
ID : 6
Format : E-AC-3
Format/Info : Enhanced Audio Coding 3
Format settings, Endianness : Big
Codec ID : A_EAC3
Duration : 44 min 32 s
Bit rate mode : Constant
Bit rate : 256 kb/s
Channel(s) : 6 channels
Channel positions : Front: L C R, Side: L R, LFE
Sampling rate : 48.0 kHz
Frame rate : 187.500 FPS (256 SPF)
Compression mode : Lossy
Stream size : 81.6 MiB (4%)
Title : German
Language : German
Service kind : Complete Main
Default : No
Forced : No

Audio #6
ID : 7
Format : E-AC-3
Format/Info : Enhanced Audio Coding 3
Format settings, Endianness : Big
Codec ID : A_EAC3
Duration : 44 min 32 s
Bit rate mode : Constant
Bit rate : 256 kb/s
Channel(s) : 6 channels
Channel positions : Front: L C R, Side: L R, LFE
Sampling rate : 48.0 kHz
Frame rate : 187.500 FPS (256 SPF)
Compression mode : Lossy
Stream size : 81.6 MiB (4%)
Title : Italian
Language : Italian
Service kind : Complete Main
Default : No
Forced : No

Audio #7
ID : 8
Format : E-AC-3
Format/Info : Enhanced Audio Coding 3
Format settings, Endianness : Big
Codec ID : A_EAC3
Duration : 44 min 32 s
Bit rate mode : Constant
Bit rate : 256 kb/s
Channel(s) : 6 channels
Channel positions : Front: L C R, Side: L R, LFE
Sampling rate : 48.0 kHz
Frame rate : 187.500 FPS (256 SPF)
Compression mode : Lossy
Stream size : 81.6 MiB (4%)
Title : Brazilian Portuguese
Language : Portuguese
Service kind : Complete Main
Default : No
Forced : No

Audio #8
ID : 9
Format : AAC
Format/Info : Advanced Audio Codec
Format profile : LC
Codec ID : A_AAC-2
Duration : 44 min 32 s
Bit rate : 125 kb/s
Channel(s) : 2 channels
Channel positions : Front: L R
Sampling rate : 48.0 kHz
Frame rate : 46.875 FPS (1024 SPF)
Compression mode : Lossy
Stream size : 39.9 MiB (2%)
Title : English (Audio Description)
Language : English
Default : No
Forced : No

Text #1
ID : 10
Format : UTF-8
Codec ID : S_TEXT/UTF8
Codec ID/Info : UTF-8 Plain Text
Duration : 41 min 16 s
Bit rate : 81 b/s
Count of elements : 672
Stream size : 24.7 KiB (0%)
Title : English [SDH]
Language : English
Default : No
Forced : No

Text #2
ID : 11
Format : UTF-8
Codec ID : S_TEXT/UTF8
Codec ID/Info : UTF-8 Plain Text
Duration : 43 min 14 s
Bit rate : 0 b/s
Count of elements : 9
Stream size : 306 Bytes (0%)
Title : Castilian [Forced]
Language : Spanish
Default : No
Forced : Yes

Text #3
ID : 12
Format : UTF-8
Codec ID : S_TEXT/UTF8
Codec ID/Info : UTF-8 Plain Text
Duration : 43 min 14 s
Bit rate : 61 b/s
Count of elements : 600
Stream size : 19.6 KiB (0%)
Title : Castilian [Full]
Language : Spanish
Default : No
Forced : No

Text #4
ID : 13
Format : UTF-8
Codec ID : S_TEXT/UTF8
Codec ID/Info : UTF-8 Plain Text
Duration : 43 min 14 s
Bit rate : 1 b/s
Count of elements : 9
Stream size : 345 Bytes (0%)
Title : Spanish [Forced]
Language : Spanish
Default : No
Forced : Yes

Text #5
ID : 14
Format : UTF-8
Codec ID : S_TEXT/UTF8
Codec ID/Info : UTF-8 Plain Text
Duration : 43 min 14 s
Bit rate : 69 b/s
Count of elements : 613
Stream size : 22.0 KiB (0%)
Title : Spanish [Full]
Language : Spanish
Default : No
Forced : No

Text #6
ID : 15
Format : UTF-8
Codec ID : S_TEXT/UTF8
Codec ID/Info : UTF-8 Plain Text
Duration : 43 min 14 s
Bit rate : 0 b/s
Count of elements : 9
Stream size : 282 Bytes (0%)
Title : French [Forced]
Language : French
Default : No
Forced : Yes

Text #7
ID : 16
Format : UTF-8
Codec ID : S_TEXT/UTF8
Codec ID/Info : UTF-8 Plain Text
Duration : 43 min 14 s
Bit rate : 69 b/s
Count of elements : 616
Stream size : 22.1 KiB (0%)
Title : French [Full]
Language : French
Default : No
Forced : No

Text #8
ID : 17
Format : UTF-8
Codec ID : S_TEXT/UTF8
Codec ID/Info : UTF-8 Plain Text
Duration : 43 min 14 s
Bit rate : 0 b/s
Count of elements : 8
Stream size : 285 Bytes (0%)
Title : German [Forced]
Language : German
Default : No
Forced : Yes

Text #9
ID : 18
Format : UTF-8
Codec ID : S_TEXT/UTF8
Codec ID/Info : UTF-8 Plain Text
Duration : 43 min 14 s
Bit rate : 69 b/s
Count of elements : 607
Stream size : 22.0 KiB (0%)
Title : German [Full]
Language : German
Default : No
Forced : No

Text #10
ID : 19
Format : UTF-8
Codec ID : S_TEXT/UTF8
Codec ID/Info : UTF-8 Plain Text
Duration : 43 min 14 s
Bit rate : 0 b/s
Count of elements : 9
Stream size : 302 Bytes (0%)
Title : Italian [Forced]
Language : Italian
Default : No
Forced : Yes

Text #11
ID : 20
Format : UTF-8
Codec ID : S_TEXT/UTF8
Codec ID/Info : UTF-8 Plain Text
Duration : 43 min 14 s
Bit rate : 62 b/s
Count of elements : 604
Stream size : 19.7 KiB (0%)
Title : Italian [Full]
Language : Italian
Default : No
Forced : No

Text #12
ID : 21
Format : UTF-8
Codec ID : S_TEXT/UTF8
Codec ID/Info : UTF-8 Plain Text
Duration : 43 min 14 s
Bit rate : 62 b/s
Count of elements : 609
Stream size : 19.8 KiB (0%)
Title : Portuguese [Full]
Language : Portuguese
Default : No
Forced : No

Text #13
ID : 22
Format : UTF-8
Codec ID : S_TEXT/UTF8
Codec ID/Info : UTF-8 Plain Text
Duration : 43 min 14 s
Bit rate : 0 b/s
Count of elements : 10
Stream size : 320 Bytes (0%)
Title : Brazilian Portuguese [Forced]
Language : Portuguese
Default : No
Forced : Yes

Text #14
ID : 23
Format : UTF-8
Codec ID : S_TEXT/UTF8
Codec ID/Info : UTF-8 Plain Text
Duration : 43 min 14 s
Bit rate : 68 b/s
Count of elements : 611
Stream size : 21.6 KiB (0%)
Title : Brazilian Portuguese [Full]
Language : Portuguese
Default : No
Forced : No

Text #15
ID : 24
Format : UTF-8
Codec ID : S_TEXT/UTF8
Codec ID/Info : UTF-8 Plain Text
Duration : 43 min 14 s
Bit rate : 56 b/s
Count of elements : 500
Stream size : 17.8 KiB (0%)
Title : Polish [Full]
Language : Polish
Default : No
Forced : No

Text #16
ID : 25
Format : UTF-8
Codec ID : S_TEXT/UTF8
Codec ID/Info : UTF-8 Plain Text
Duration : 43 min 14 s
Bit rate : 68 b/s
Count of elements : 609
Stream size : 21.7 KiB (0%)
Title : Swedish [Full]
Language : Swedish
Default : No
Forced : No

Text #17
ID : 26
Format : UTF-8
Codec ID : S_TEXT/UTF8
Codec ID/Info : UTF-8 Plain Text
Duration : 43 min 14 s
Bit rate : 61 b/s
Count of elements : 551
Stream size : 19.6 KiB (0%)
Title : Danish [Full]
Language : Danish
Default : No
Forced : No

Text #18
ID : 27
Format : UTF-8
Codec ID : S_TEXT/UTF8
Codec ID/Info : UTF-8 Plain Text
Duration : 43 min 14 s
Bit rate : 65 b/s
Count of elements : 562
Stream size : 20.6 KiB (0%)
Title : Finnish [Full]
Language : Finnish
Default : No
Forced : No

Text #19
ID : 28
Format : UTF-8
Codec ID : S_TEXT/UTF8
Codec ID/Info : UTF-8 Plain Text
Duration : 43 min 14 s
Bit rate : 58 b/s
Count of elements : 527
Stream size : 18.5 KiB (0%)
Title : Dutch [Full]
Language : Dutch
Default : No
Forced : No

Text #20
ID : 29
Format : UTF-8
Codec ID : S_TEXT/UTF8
Codec ID/Info : UTF-8 Plain Text
Duration : 43 min 14 s
Bit rate : 58 b/s
Count of elements : 599
Stream size : 18.5 KiB (0%)
Title : Norwegian [Full]
Language : Norwegian
Default : No
Forced : No





The Right Stuff S01E02


The Right Stuff S01E02


The Right Stuff S01E02


The Right Stuff S01E02


The Right Stuff S01E02