The Salisbury Poisonings S01E04

TV Series
The Salisbury Poisonings S01E04

The Salisbury Poisonings S01E04
WEB-DL | MKV | 1280x640 | English | H264 @ 3123 kbps | E-AC-3 @ 640 kbps | 45 min 24 s | 1.19 GiB
Genre: Drama


In March 2018 Salisbury became the site of an unprecedented national emergency. This three-part dramatisation focuses on the extraordinary heroism shown by the local community.

bcc33d9159ba49379cc98b77b37093ca.mkv (1.2 GB)



General
Unique ID : 45254325630338488770138589440609608110 (0x220BAA8482B992469100A3AB46EFE1AE)
Complete name : ./bcc33d9159ba49379cc98b77b37093ca.mkv
Format : Matroska
Format version : Version 4 / Version 2
File size : 1.19 GiB
Duration : 45 min 24 s
Overall bit rate mode : Constant
Overall bit rate : 3 766 kb/s
Encoded date : UTC 2020-07-16 12:19:44
Writing application : mkvmerge v45.0.0 ('Heaven in Pennies') 64-bit
Writing library : libebml v1.3.10 + libmatroska v1.5.2

Video
ID : 1
Format : AVC
Format/Info : Advanced Video Codec
Format profile : High@L3.1
Format settings : CABAC / 4 Ref Frames
Format settings, CABAC : Yes
Format settings, RefFrames : 4 frames
Codec ID : V_MPEG4/ISO/AVC
Duration : 45 min 24 s
Bit rate mode : Constant
Bit rate : 3 124 kb/s
Nominal bit rate : 6 000 kb/s
Width : 1 280 pixels
Height : 640 pixels
Display aspect ratio : 2.000
Frame rate mode : Constant
Frame rate : 25.000 FPS
Color space : YUV
Chroma subsampling : 4:2:0
Bit depth : 8 bits
Scan type : Progressive
Bits/(Pixel*Frame) : 0.153
Stream size : 1 014 MiB (83%)
Default : Yes
Forced : No
Color range : Limited
Color primaries : BT.709
Transfer characteristics : BT.709
Matrix coefficients : BT.709

Audio
ID : 2
Format : E-AC-3
Format/Info : Enhanced Audio Coding 3
Format settings, Endianness : Big
Codec ID : A_EAC3
Duration : 45 min 24 s
Bit rate mode : Constant
Bit rate : 640 kb/s
Channel(s) : 6 channels
Channel positions : Front: L C R, Side: L R, LFE
Sampling rate : 48.0 kHz
Frame rate : 187.500 FPS (256 SPF)
Compression mode : Lossy
Stream size : 208 MiB (17%)
Language : English
Service kind : Complete Main
Default : Yes
Forced : No





The Salisbury Poisonings S01E04


The Salisbury Poisonings S01E04


The Salisbury Poisonings S01E04


The Salisbury Poisonings S01E04


The Salisbury Poisonings S01E04