The Salisbury Poisonings S01E04

TV Series
The Salisbury Poisonings S01E04

The Salisbury Poisonings S01E04
BDRip | MKV | 1920x960 | English | H264 @ 12943 kbps | DTS | 45 min 24 s | 5.15 GiB
Subtitles: English
Genre: Drama


In March 2018 Salisbury became the site of an unprecedented national emergency. This three-part dramatisation focuses on the extraordinary heroism shown by the local community.

629e0542e473747c40e21ea667959c2d.mkv (5.1 GB)



General
Unique ID : 98884055957004142572742986482474677176 (0x4A64605E4E828D4881B132D1FD01F3B8)
Complete name : ./629e0542e473747c40e21ea667959c2d.mkv
Format : Matroska
Format version : Version 4 / Version 2
File size : 5.15 GiB
Duration : 45 min 24 s
Overall bit rate : 16.2 Mb/s
Writing application : mkvmerge v47.0.0 ('Black Flag') 64-bit
Writing library : libebml v1.3.10 + libmatroska v1.5.2

Video
ID : 1
Format : AVC
Format/Info : Advanced Video Codec
Format profile : High@L4.1
Format settings : CABAC / 4 Ref Frames
Format settings, CABAC : Yes
Format settings, RefFrames : 4 frames
Codec ID : V_MPEG4/ISO/AVC
Duration : 45 min 24 s
Bit rate : 12.9 Mb/s
Width : 1 920 pixels
Height : 960 pixels
Display aspect ratio : 2.000
Frame rate mode : Constant
Frame rate : 25.000 FPS
Color space : YUV
Chroma subsampling : 4:2:0
Bit depth : 8 bits
Scan type : Progressive
Bits/(Pixel*Frame) : 0.281
Stream size : 4.10 GiB (80%)
Writing library : x264 core 161 r3018 db0d417
Encoding settings : cabac=1 / ref=4 / deblock=1:-3:-3 / analyse=0x3:0x133 / me=umh / subme=9 / psy=1 / psy_rd=1.00:0.00 / mixed_ref=1 / me_range=32 / chroma_me=1 / trellis=2 / 8x8dct=1 / cqm=0 / deadzone=21,11 / fast_pskip=0 / chroma_qp_offset=-2 / threads=24 / lookahead_threads=2 / sliced_threads=0 / nr=0 / decimate=0 / interlaced=0 / bluray_compat=0 / constrained_intra=0 / bframes=3 / b_pyramid=2 / b_adapt=2 / b_bias=0 / direct=3 / weightb=1 / open_gop=0 / weightp=2 / keyint=250 / keyint_min=25 / scenecut=40 / intra_refresh=0 / rc=crf / mbtree=0 / crf=17.0 / qcomp=0.60 / qpmin=0 / qpmax=69 / qpstep=4 / ip_ratio=1.40 / pb_ratio=1.30 / aq=3:0.80
Default : Yes
Forced : No
Color range : Limited
Matrix coefficients : BT.709

Audio
ID : 2
Format : DTS
Format/Info : Digital Theater Systems
Format profile : MA / Core
Mode : 16
Format settings, Endianness : Big
Codec ID : A_DTS
Duration : 45 min 24 s
Bit rate mode : Variable / Constant
Bit rate : 3 274 kb/s / 768 kb/s
Channel(s) : 6 channels
Channel positions : Front: L C R, Side: L R, LFE
Sampling rate : 48.0 kHz
Frame rate : 93.750 FPS (512 SPF)
Bit depth : 24 bits
Compression mode : Lossless / Lossy
Stream size : 1.04 GiB (20%)
Title : DTS-HD MA 5.1
Language : English
Default : Yes
Forced : No

Text
ID : 3
Format : PGS
Muxing mode : zlib
Codec ID : S_HDMV/PGS
Codec ID/Info : Picture based subtitle format used on BDs/HD-DVDs
Duration : 42 min 45 s
Bit rate : 45.7 kb/s
Count of elements : 1210
Stream size : 14.0 MiB (0%)
Title : English SDH
Language : English
Default : No
Forced : No

Menu
00:00:00.000 : en:Chapter 01
00:09:29.360 : en:Chapter 02
00:21:23.800 : en:Chapter 03
00:33:37.720 : en:Chapter 04





The Salisbury Poisonings S01E04


The Salisbury Poisonings S01E04


The Salisbury Poisonings S01E04


The Salisbury Poisonings S01E04


The Salisbury Poisonings S01E04