The Twelve S01E02

TV Series
The Twelve S01E02

The Twelve S01E02
HDTV | MKV | 1920x1080 | Nederlands / Français | H264 @ 8324 kbps | AAC @ 62 kbps | 46 min 24 s | 2.74 GiB
Subtitles: Français
Genre: Drama


Twelve ordinary people are called for jury duty for a murder case as traumatizing as it is controversial: the respected headmistress Fri Palmers stands accused of two murders, one of whom is her own child. Gradually, as the trial gains momentum, it is not only Fri’s fate that hangs in the balance, but also the lives of the jury members that are shaken to the core.

1a8cee25b9eb43589b26b530a4b01414.mkv (2.7 GB)



General
Unique ID : 68967339402964162343799014464906304589 (0x33E2A05CAC787530A83CAC07A35F9C4D)
Complete name : ./1a8cee25b9eb43589b26b530a4b01414.mkv
Format : Matroska
Format version : Version 4 / Version 2
File size : 2.74 GiB
Duration : 46 min 24 s
Overall bit rate : 8 454 kb/s
Encoded date : UTC 2020-02-04 18:17:46
Writing application : mkvmerge v43.0.0 ('The Quartermaster') 64-bit
Writing library : libebml v1.3.10 + libmatroska v1.5.2

Video
ID : 1
Format : AVC
Format/Info : Advanced Video Codec
Format profile : High@L4
Format settings : CABAC / 4 Ref Frames
Format settings, CABAC : Yes
Format settings, RefFrames : 4 frames
Codec ID : V_MPEG4/ISO/AVC
Duration : 46 min 24 s
Bit rate : 8 325 kb/s
Width : 1 920 pixels
Height : 1 080 pixels
Display aspect ratio : 16:9
Frame rate mode : Variable
Frame rate : 50.000 FPS
Original frame rate : 25.000 FPS
Standard : Component
Color space : YUV
Chroma subsampling : 4:2:0
Bit depth : 8 bits
Scan type : Interlaced
Scan type, store method : Separated fields
Scan order : Top Field First
Bits/(Pixel*Frame) : 0.080
Stream size : 2.70 GiB (98%)
Title : The Twelve S01E02
Language : French
Default : Yes
Forced : No
Color range : Limited
Color primaries : BT.709
Transfer characteristics : BT.709
Matrix coefficients : BT.709

Audio #1
ID : 2
Format : AAC
Format/Info : Advanced Audio Codec
Format profile : HE-AAC / LC
Format settings : Explicit
Codec ID : A_AAC-2
Duration : 46 min 24 s
Bit rate : 62.7 kb/s
Channel(s) : 2 channels
Channel positions : Front: L R
Sampling rate : 48.0 kHz / 24.0 kHz
Frame rate : 23.438 FPS (1024 SPF)
Compression mode : Lossy
Stream size : 20.8 MiB (1%)
Title : Français HE-AAC 2.0
Language : French
Default : Yes
Forced : No

Audio #2
ID : 3
Format : AAC
Format/Info : Advanced Audio Codec
Format profile : HE-AAC / LC
Format settings : Explicit
Codec ID : A_AAC-2
Duration : 46 min 24 s
Bit rate : 62.7 kb/s
Channel(s) : 2 channels
Channel positions : Front: L R
Sampling rate : 48.0 kHz / 24.0 kHz
Frame rate : 23.438 FPS (1024 SPF)
Compression mode : Lossy
Stream size : 20.8 MiB (1%)
Title : Néerlandais HE-AAC 2.0
Language : Dutch
Default : No
Forced : No

Text
ID : 5
Format : UTF-8
Codec ID : S_TEXT/UTF8
Codec ID/Info : UTF-8 Plain Text
Duration : 45 min 39 s
Bit rate : 73 b/s
Count of elements : 634
Stream size : 24.6 KiB (0%)
Title : Français
Language : French
Default : No
Forced : No





The Twelve S01E02


The Twelve S01E02


The Twelve S01E02


The Twelve S01E02


The Twelve S01E02