The Twelve S01E10

TV Series
The Twelve S01E10

The Twelve S01E10
WEBRip | MKV | 1280x720 | Nederlands / Français | H264 @ 3400 kbps | AAC @ 128 kbps | 54 min 29 s | 1.38 GiB
Subtitles: Français
Genre: Drama


Twelve ordinary people are called for jury duty for a murder case as traumatizing as it is controversial: the respected headmistress Fri Palmers stands accused of two murders, one of whom is her own child. Gradually, as the trial gains momentum, it is not only Fri’s fate that hangs in the balance, but also the lives of the jury members that are shaken to the core.

3c308470df074f5abc417c53c1602848.mkv (1.4 GB)



General
Unique ID : 136553634104026047341536832027656309135 (0x66BB45F6917E46B97AF1C2A17A15C98F)
Complete name : ./3c308470df074f5abc417c53c1602848.mkv
Format : Matroska
Format version : Version 4 / Version 2
File size : 1.38 GiB
Duration : 54 min 29 s
Overall bit rate : 3 614 kb/s
Encoded date : UTC 2020-02-03 21:00:43
Writing application : mkvmerge v43.0.0 ('The Quartermaster') 64-bit
Writing library : libebml v1.3.10 + libmatroska v1.5.2

Video
ID : 1
Format : AVC
Format/Info : Advanced Video Codec
Format profile : High@L3.1
Format settings : CABAC / 2 Ref Frames
Format settings, CABAC : Yes
Format settings, RefFrames : 2 frames
Format settings, GOP : M=1, N=50
Codec ID : V_MPEG4/ISO/AVC
Duration : 54 min 29 s
Bit rate mode : Constant
Bit rate : 3 400 kb/s
Width : 1 280 pixels
Height : 720 pixels
Display aspect ratio : 16:9
Frame rate mode : Constant
Frame rate : 25.000 FPS
Color space : YUV
Chroma subsampling : 4:2:0
Bit depth : 8 bits
Scan type : Progressive
Bits/(Pixel*Frame) : 0.148
Stream size : 1.28 GiB (93%)
Default : Yes
Forced : No
Color range : Limited
Color primaries : BT.709
Transfer characteristics : BT.709
Matrix coefficients : BT.709

Audio #1
ID : 2
Format : AAC
Format/Info : Advanced Audio Codec
Format profile : LC
Codec ID : A_AAC-2
Duration : 54 min 29 s
Bit rate : 128 kb/s
Channel(s) : 2 channels
Channel positions : Front: L R
Sampling rate : 48.0 kHz
Frame rate : 46.875 FPS (1024 SPF)
Compression mode : Lossy
Stream size : 49.9 MiB (4%)
Title : French
Language : French
Default : Yes
Forced : No

Audio #2
ID : 3
Format : AAC
Format/Info : Advanced Audio Codec
Format profile : LC
Codec ID : A_AAC-2
Duration : 54 min 29 s
Bit rate : 128 kb/s
Channel(s) : 2 channels
Channel positions : Front: L R
Sampling rate : 48.0 kHz
Frame rate : 46.875 FPS (1024 SPF)
Compression mode : Lossy
Stream size : 49.9 MiB (4%)
Title : Flemish
Language : Dutch
Default : No
Forced : No

Text
ID : 4
Format : UTF-8
Codec ID : S_TEXT/UTF8
Codec ID/Info : UTF-8 Plain Text
Duration : 52 min 57 s
Bit rate : 55 b/s
Count of elements : 591
Stream size : 21.5 KiB (0%)
Title : French
Language : French
Default : No
Forced : No





The Twelve S01E10


The Twelve S01E10


The Twelve S01E10


The Twelve S01E10


The Twelve S01E10