Tiny World S01E02

TV Series
Tiny World S01E02

Tiny World S01E02
WEB-DL | MKV | 1024x576 | English | H264 @ 2129 kbps | AAC @ 126 kbps | 31 min 17 s | 506 MiB
Subtitles: ภาษาไทย, Français, tiếng Việt, Español, Eesti keel, Slovenčina, 日本語, עברית, 한국어, Български, Ελληνικά, Nederlands, Dansk, Bahasa Indonesia, Русский, Українська, 中文, Suomi, Polski, Magyar, Türkçe, English, हिन्दी, العربية, Slovenščina, Deutsch, Svenska, Italiano, Português, Čeština
Genre: Documentary


This docuseries showcases nature's lesser-known tiny heroes. Spotlighting small creatures and the extraordinary things they do to survive, each episode is filled with surprising stories and spectacular cinematography.

096bceb69d46f6475728746ef52d7faf.mkv (506.4 MB)



General
Unique ID : 29237832590238342523595709731405988982 (0x15FF007157643A5C412961E2F2BE8476)
Complete name : ./096bceb69d46f6475728746ef52d7faf.mkv
Format : Matroska
Format version : Version 4 / Version 2
File size : 506 MiB
Duration : 31 min 17 s
Overall bit rate : 2 262 kb/s
Writing application : mkvmerge v45.0.0 ('Heaven in Pennies') 64-bit
Writing library : libebml v1.3.10 + libmatroska v1.5.2

Video
ID : 1
Format : AVC
Format/Info : Advanced Video Codec
Format profile : High@L3.1
Format settings : CABAC / 5 Ref Frames
Format settings, CABAC : Yes
Format settings, RefFrames : 5 frames
Codec ID : V_MPEG4/ISO/AVC
Duration : 31 min 17 s
Bit rate : 2 130 kb/s
Width : 1 024 pixels
Height : 576 pixels
Display aspect ratio : 16:9
Frame rate mode : Constant
Frame rate : 23.976 (23976/1000) FPS
Color space : YUV
Chroma subsampling : 4:2:0
Bit depth : 8 bits
Scan type : Progressive
Bits/(Pixel*Frame) : 0.151
Stream size : 477 MiB (94%)
Default : Yes
Forced : No
Color range : Limited
Color primaries : BT.709
Transfer characteristics : BT.709
Matrix coefficients : BT.709

Audio
ID : 2
Format : AAC
Format/Info : Advanced Audio Codec
Format profile : LC
Codec ID : A_AAC-2
Duration : 31 min 17 s
Bit rate : 127 kb/s
Channel(s) : 2 channels
Channel positions : Front: L R
Sampling rate : 44.1 kHz
Frame rate : 43.066 FPS (1024 SPF)
Compression mode : Lossy
Stream size : 28.4 MiB (6%)
Language : English
Default : Yes
Forced : No

Text #1
ID : 3
Format : UTF-8
Codec ID : S_TEXT/UTF8
Codec ID/Info : UTF-8 Plain Text
Duration : 31 min 5 s
Bit rate : 57 b/s
Count of elements : 219
Stream size : 13.0 KiB (0%)
Language : Arabic
Default : No
Forced : No

Text #2
ID : 4
Format : UTF-8
Codec ID : S_TEXT/UTF8
Codec ID/Info : UTF-8 Plain Text
Duration : 31 min 5 s
Bit rate : 60 b/s
Count of elements : 209
Stream size : 13.8 KiB (0%)
Language : Bulgarian
Default : No
Forced : No

Text #3
ID : 5
Format : UTF-8
Codec ID : S_TEXT/UTF8
Codec ID/Info : UTF-8 Plain Text
Duration : 31 min 5 s
Bit rate : 35 b/s
Count of elements : 222
Stream size : 8.09 KiB (0%)
Title : Simplified Mandarin
Language : Chinese
Default : No
Forced : No

Text #4
ID : 6
Format : UTF-8
Codec ID : S_TEXT/UTF8
Codec ID/Info : UTF-8 Plain Text
Duration : 31 min 5 s
Bit rate : 31 b/s
Count of elements : 223
Stream size : 7.25 KiB (0%)
Title : Traditional Mandarin
Language : Chinese
Default : No
Forced : No

Text #5
ID : 7
Format : UTF-8
Codec ID : S_TEXT/UTF8
Codec ID/Info : UTF-8 Plain Text
Duration : 31 min 5 s
Bit rate : 38 b/s
Count of elements : 216
Stream size : 8.74 KiB (0%)
Language : Czech
Default : No
Forced : No

Text #6
ID : 8
Format : UTF-8
Codec ID : S_TEXT/UTF8
Codec ID/Info : UTF-8 Plain Text
Duration : 31 min 5 s
Bit rate : 38 b/s
Count of elements : 212
Stream size : 8.66 KiB (0%)
Language : Danish
Default : No
Forced : No

Text #7
ID : 9
Format : UTF-8
Codec ID : S_TEXT/UTF8
Codec ID/Info : UTF-8 Plain Text
Duration : 31 min 9 s
Bit rate : 47 b/s
Count of elements : 231
Stream size : 10.8 KiB (0%)
Language : German
Default : No
Forced : No

Text #8
ID : 10
Format : UTF-8
Codec ID : S_TEXT/UTF8
Codec ID/Info : UTF-8 Plain Text
Duration : 31 min 5 s
Bit rate : 72 b/s
Count of elements : 223
Stream size : 16.4 KiB (0%)
Language : Greek
Default : No
Forced : No

Text #9
ID : 11
Format : UTF-8
Codec ID : S_TEXT/UTF8
Codec ID/Info : UTF-8 Plain Text
Duration : 30 min 14 s
Bit rate : 37 b/s
Count of elements : 219
Stream size : 8.39 KiB (0%)
Language : English
Default : No
Forced : No

Text #10
ID : 12
Format : UTF-8
Codec ID : S_TEXT/UTF8
Codec ID/Info : UTF-8 Plain Text
Duration : 30 min 14 s
Bit rate : 40 b/s
Count of elements : 254
Stream size : 8.90 KiB (0%)
Title : SDH
Language : English
Default : No
Forced : No

Text #11
ID : 13
Format : UTF-8
Codec ID : S_TEXT/UTF8
Codec ID/Info : UTF-8 Plain Text
Duration : 31 min 5 s
Bit rate : 42 b/s
Count of elements : 225
Stream size : 9.78 KiB (0%)
Title : Latin America
Language : Spanish
Default : No
Forced : No

Text #12
ID : 14
Format : UTF-8
Codec ID : S_TEXT/UTF8
Codec ID/Info : UTF-8 Plain Text
Duration : 31 min 5 s
Bit rate : 43 b/s
Count of elements : 236
Stream size : 9.85 KiB (0%)
Title : Spain
Language : Spanish
Default : No
Forced : No

Text #13
ID : 15
Format : UTF-8
Codec ID : S_TEXT/UTF8
Codec ID/Info : UTF-8 Plain Text
Duration : 31 min 5 s
Bit rate : 36 b/s
Count of elements : 216
Stream size : 8.35 KiB (0%)
Language : Estonian
Default : No
Forced : No

Text #14
ID : 16
Format : UTF-8
Codec ID : S_TEXT/UTF8
Codec ID/Info : UTF-8 Plain Text
Duration : 31 min 5 s
Bit rate : 37 b/s
Count of elements : 221
Stream size : 8.65 KiB (0%)
Language : Finnish
Default : No
Forced : No

Text #15
ID : 17
Format : UTF-8
Codec ID : S_TEXT/UTF8
Codec ID/Info : UTF-8 Plain Text
Duration : 31 min 7 s
Bit rate : 41 b/s
Count of elements : 255
Stream size : 9.56 KiB (0%)
Title : Canada
Language : French
Default : No
Forced : No

Text #16
ID : 18
Format : UTF-8
Codec ID : S_TEXT/UTF8
Codec ID/Info : UTF-8 Plain Text
Duration : 31 min 7 s
Bit rate : 41 b/s
Count of elements : 254
Stream size : 9.55 KiB (0%)
Title : France
Language : French
Default : No
Forced : No

Text #17
ID : 19
Format : UTF-8
Codec ID : S_TEXT/UTF8
Codec ID/Info : UTF-8 Plain Text
Duration : 31 min 5 s
Bit rate : 53 b/s
Count of elements : 222
Stream size : 12.2 KiB (0%)
Language : Hebrew
Default : No
Forced : No

Text #18
ID : 20
Format : UTF-8
Codec ID : S_TEXT/UTF8
Codec ID/Info : UTF-8 Plain Text
Duration : 31 min 5 s
Bit rate : 102 b/s
Count of elements : 223
Stream size : 23.4 KiB (0%)
Language : Hindi
Default : No
Forced : No

Text #19
ID : 21
Format : UTF-8
Codec ID : S_TEXT/UTF8
Codec ID/Info : UTF-8 Plain Text
Duration : 31 min 5 s
Bit rate : 38 b/s
Count of elements : 221
Stream size : 8.86 KiB (0%)
Language : Hungarian
Default : No
Forced : No

Text #20
ID : 22
Format : UTF-8
Codec ID : S_TEXT/UTF8
Codec ID/Info : UTF-8 Plain Text
Duration : 31 min 5 s
Bit rate : 39 b/s
Count of elements : 222
Stream size : 9.09 KiB (0%)
Language : Indonesian
Default : No
Forced : No

Text #21
ID : 23
Format : UTF-8
Codec ID : S_TEXT/UTF8
Codec ID/Info : UTF-8 Plain Text
Duration : 31 min 7 s
Bit rate : 39 b/s
Count of elements : 221
Stream size : 9.06 KiB (0%)
Language : Italian
Default : No
Forced : No

Text #22
ID : 24
Format : UTF-8
Codec ID : S_TEXT/UTF8
Codec ID/Info : UTF-8 Plain Text
Duration : 31 min 9 s
Bit rate : 34 b/s
Count of elements : 215
Stream size : 7.90 KiB (0%)
Language : Japanese
Default : No
Forced : No

Text #23
ID : 25
Format : UTF-8
Codec ID : S_TEXT/UTF8
Codec ID/Info : UTF-8 Plain Text
Duration : 31 min 5 s
Bit rate : 42 b/s
Count of elements : 223
Stream size : 9.75 KiB (0%)
Language : Korean
Default : No
Forced : No

Text #24
ID : 26
Format : UTF-8
Codec ID : S_TEXT/UTF8
Codec ID/Info : UTF-8 Plain Text
Duration : 31 min 5 s
Bit rate : 40 b/s
Count of elements : 222
Stream size : 9.28 KiB (0%)
Language : Lithuanian
Default : No
Forced : No

Text #25
ID : 27
Format : UTF-8
Codec ID : S_TEXT/UTF8
Codec ID/Info : UTF-8 Plain Text
Duration : 31 min 5 s
Bit rate : 37 b/s
Count of elements : 220
Stream size : 8.54 KiB (0%)
Language : Latvian
Default : No
Forced : No

Text #26
ID : 28
Format : UTF-8
Codec ID : S_TEXT/UTF8
Codec ID/Info : UTF-8 Plain Text
Duration : 31 min 5 s
Bit rate : 40 b/s
Count of elements : 222
Stream size : 9.16 KiB (0%)
Language : Malay
Default : No
Forced : No

Text #27
ID : 29
Format : UTF-8
Codec ID : S_TEXT/UTF8
Codec ID/Info : UTF-8 Plain Text
Duration : 31 min 5 s
Bit rate : 36 b/s
Count of elements : 206
Stream size : 8.33 KiB (0%)
Language : Dutch
Default : No
Forced : No

Text #28
ID : 30
Format : UTF-8
Codec ID : S_TEXT/UTF8
Codec ID/Info : UTF-8 Plain Text
Duration : 31 min 5 s
Bit rate : 36 b/s
Count of elements : 209
Stream size : 8.22 KiB (0%)
Language : Norwegian
Default : No
Forced : No

Text #29
ID : 31
Format : UTF-8
Codec ID : S_TEXT/UTF8
Codec ID/Info : UTF-8 Plain Text
Duration : 31 min 5 s
Bit rate : 38 b/s
Count of elements : 218
Stream size : 8.75 KiB (0%)
Language : Polish
Default : No
Forced : No

Text #30
ID : 32
Format : UTF-8
Codec ID : S_TEXT/UTF8
Codec ID/Info : UTF-8 Plain Text
Duration : 31 min 5 s
Bit rate : 42 b/s
Count of elements : 223
Stream size : 9.58 KiB (0%)
Language : Portuguese
Default : No
Forced : No

Text #31
ID : 33
Format : UTF-8
Codec ID : S_TEXT/UTF8
Codec ID/Info : UTF-8 Plain Text
Duration : 31 min 5 s
Bit rate : 37 b/s
Count of elements : 223
Stream size : 8.43 KiB (0%)
Title : Brazil
Language : Portuguese
Default : No
Forced : No

Text #32
ID : 34
Format : UTF-8
Codec ID : S_TEXT/UTF8
Codec ID/Info : UTF-8 Plain Text
Duration : 31 min 5 s
Bit rate : 62 b/s
Count of elements : 223
Stream size : 14.3 KiB (0%)
Language : Russian
Default : No
Forced : No

Text #33
ID : 35
Format : UTF-8
Codec ID : S_TEXT/UTF8
Codec ID/Info : UTF-8 Plain Text
Duration : 31 min 5 s
Bit rate : 36 b/s
Count of elements : 220
Stream size : 8.39 KiB (0%)
Language : Slovak
Default : No
Forced : No

Text #34
ID : 36
Format : UTF-8
Codec ID : S_TEXT/UTF8
Codec ID/Info : UTF-8 Plain Text
Duration : 31 min 5 s
Bit rate : 34 b/s
Count of elements : 221
Stream size : 7.75 KiB (0%)
Language : Slovenian
Default : No
Forced : No

Text #35
ID : 37
Format : UTF-8
Codec ID : S_TEXT/UTF8
Codec ID/Info : UTF-8 Plain Text
Duration : 31 min 5 s
Bit rate : 39 b/s
Count of elements : 221
Stream size : 9.01 KiB (0%)
Language : Swedish
Default : No
Forced : No

Text #36
ID : 38
Format : UTF-8
Codec ID : S_TEXT/UTF8
Codec ID/Info : UTF-8 Plain Text
Duration : 31 min 5 s
Bit rate : 121 b/s
Count of elements : 222
Stream size : 27.6 KiB (0%)
Language : Tamil
Default : No
Forced : No

Text #37
ID : 39
Format : UTF-8
Codec ID : S_TEXT/UTF8
Codec ID/Info : UTF-8 Plain Text
Duration : 31 min 5 s
Bit rate : 108 b/s
Count of elements : 222
Stream size : 24.8 KiB (0%)
Language : Telugu
Default : No
Forced : No

Text #38
ID : 40
Format : UTF-8
Codec ID : S_TEXT/UTF8
Codec ID/Info : UTF-8 Plain Text
Duration : 31 min 5 s
Bit rate : 98 b/s
Count of elements : 222
Stream size : 22.5 KiB (0%)
Language : Thai
Default : No
Forced : No

Text #39
ID : 41
Format : UTF-8
Codec ID : S_TEXT/UTF8
Codec ID/Info : UTF-8 Plain Text
Duration : 31 min 5 s
Bit rate : 40 b/s
Count of elements : 222
Stream size : 9.21 KiB (0%)
Language : Turkish
Default : No
Forced : No

Text #40
ID : 42
Format : UTF-8
Codec ID : S_TEXT/UTF8
Codec ID/Info : UTF-8 Plain Text
Duration : 31 min 5 s
Bit rate : 65 b/s
Count of elements : 223
Stream size : 14.9 KiB (0%)
Language : Ukrainian
Default : No
Forced : No

Text #41
ID : 43
Format : UTF-8
Codec ID : S_TEXT/UTF8
Codec ID/Info : UTF-8 Plain Text
Duration : 31 min 5 s
Bit rate : 51 b/s
Count of elements : 223
Stream size : 11.7 KiB (0%)
Language : Vietnamese
Default : No
Forced : No

Text #42
ID : 44
Format : UTF-8
Codec ID : S_TEXT/UTF8
Codec ID/Info : UTF-8 Plain Text
Duration : 31 min 5 s
Bit rate : 36 b/s
Count of elements : 223
Stream size : 8.25 KiB (0%)
Title : Cantonese
Language : Chinese
Default : No
Forced : No





Tiny World S01E02


Tiny World S01E02


Tiny World S01E02


Tiny World S01E02


Tiny World S01E02