Two Weeks to Live S01E03

TV Series
Two Weeks to Live S01E03

Two Weeks to Live S01E03
HDTV | MOV | 1920x800 | H264 @ 2386 kbps | AAC @ 160 kbps | 23 min 35 s | 431 MiB
Genre: Comedy, Crime


When strange young misfit Kim Noakes was just a little girl, her father died in murky circumstances and her mother Tina whisked her away to a remote rural life of seclusion and bizarre survival techniques. Now all grown up, Kim sets out into the real world for the first time to begin a secret mission of honouring her father’s memory.

adcda4326c954b379231e8bb159fc347.mp4 (431.0 MB)



General
Complete name : ./adcda4326c954b379231e8bb159fc347.mp4
Format : MPEG-4
Format profile : Base Media / Version 2
Codec ID : mp42 (isom/iso2/avc1/mp41)
File size : 431 MiB
Duration : 23 min 35 s
Overall bit rate : 2 554 kb/s
Encoded date : UTC 2020-09-05 07:56:26
Tagged date : UTC 2020-09-05 07:56:26
Writing application : HandBrake 1.3.3 2020061300

Video
ID : 1
Format : AVC
Format/Info : Advanced Video Codec
Format profile : Main@L4
Format settings : CABAC / 4 Ref Frames
Format settings, CABAC : Yes
Format settings, RefFrames : 4 frames
Codec ID : avc1
Codec ID/Info : Advanced Video Coding
Duration : 23 min 35 s
Bit rate : 2 387 kb/s
Width : 1 920 pixels
Height : 800 pixels
Display aspect ratio : 2.40:1
Frame rate mode : Constant
Frame rate : 25.000 FPS
Color space : YUV
Chroma subsampling : 4:2:0
Bit depth : 8 bits
Scan type : Progressive
Bits/(Pixel*Frame) : 0.062
Stream size : 403 MiB (93%)
Writing library : x264 core 157 r2935 545de2f
Encoding settings : cabac=1 / ref=2 / deblock=1:0:0 / analyse=0x1:0x111 / me=hex / subme=6 / psy=1 / psy_rd=1.00:0.00 / mixed_ref=1 / me_range=16 / chroma_me=1 / trellis=1 / 8x8dct=0 / cqm=0 / deadzone=21,11 / fast_pskip=1 / chroma_qp_offset=-2 / threads=9 / lookahead_threads=1 / sliced_threads=0 / nr=0 / decimate=1 / interlaced=0 / bluray_compat=0 / constrained_intra=0 / bframes=3 / b_pyramid=2 / b_adapt=1 / b_bias=0 / direct=1 / weightb=1 / open_gop=0 / weightp=1 / keyint=250 / keyint_min=25 / scenecut=40 / intra_refresh=0 / rc_lookahead=30 / rc=crf / mbtree=1 / crf=22.0 / qcomp=0.60 / qpmin=0 / qpmax=69 / qpstep=4 / vbv_maxrate=20000 / vbv_bufsize=25000 / crf_max=0.0 / nal_hrd=none / filler=0 / ip_ratio=1.40 / aq=1:1.00
Encoded date : UTC 2020-09-05 07:56:26
Tagged date : UTC 2020-09-05 07:56:26
Color range : Limited
Color primaries : BT.709
Transfer characteristics : BT.709
Matrix coefficients : BT.709

Audio
ID : 2
Format : AAC
Format/Info : Advanced Audio Codec
Format profile : LC
Codec ID : mp4a-40-2
Duration : 23 min 35 s
Bit rate mode : Constant
Bit rate : 161 kb/s
Channel(s) : 2 channels
Channel positions : Front: L R
Sampling rate : 48.0 kHz
Frame rate : 46.875 FPS (1024 SPF)
Compression mode : Lossy
Stream size : 27.1 MiB (6%)
Title : Stereo
Default : Yes
Alternate group : 1
Encoded date : UTC 2020-09-05 07:56:26
Tagged date : UTC 2020-09-05 07:56:26





Two Weeks to Live S01E03


Two Weeks to Live S01E03


Two Weeks to Live S01E03


Two Weeks to Live S01E03


Two Weeks to Live S01E03