Tyler Perry's Sistas S01E25

TV Series
Tyler Perry's Sistas S01E25

Tyler Perry's Sistas S01E25
HDTV | MKV | 720x404 | H264 @ 852 kbps | AAC @ 465 kbps | 41 min 54 s | 396 MiB
Subtitles: English
Genre: Comedy, Drama


There's nothing that bonds a group of single black women together more than sidestepping the land mines of living, working and dating in Atlanta. In a sea of swipe-lefts, social media drama and unrealistic #relationshipgoals, these friends try to find their Mr. Right.

9c7d51368ec445c99e78b3d4eada9bba.mkv (396.1 MB)



General
Unique ID : 125899162308106154404705858811496913237 (0x5EB74BF251AC4D678727A43BC8EA5955)
Complete name : ./9c7d51368ec445c99e78b3d4eada9bba.mkv
Format : Matroska
Format version : Version 4 / Version 2
File size : 396 MiB
Duration : 41 min 54 s
Overall bit rate : 1 321 kb/s
Encoded date : UTC 2020-04-30 23:16:23
Writing application : mkvmerge v44.0.0 ('Domino') 64-bit
Writing library : libebml v1.3.10 + libmatroska v1.5.2

Video
ID : 1
Format : AVC
Format/Info : Advanced Video Codec
Format profile : High@L3.1
Format settings : CABAC / 5 Ref Frames
Format settings, CABAC : Yes
Format settings, RefFrames : 5 frames
Codec ID : V_MPEG4/ISO/AVC
Duration : 41 min 54 s
Bit rate : 853 kb/s
Width : 720 pixels
Height : 404 pixels
Display aspect ratio : 16:9
Frame rate mode : Constant
Frame rate : 23.976 (24000/1001) FPS
Color space : YUV
Chroma subsampling : 4:2:0
Bit depth : 8 bits
Scan type : Progressive
Bits/(Pixel*Frame) : 0.122
Stream size : 256 MiB (65%)
Writing library : x264 core 160 r3000 33f9e14
Encoding settings : cabac=1 / ref=5 / deblock=1:0:0 / analyse=0x3:0x113 / me=hex / subme=8 / psy=1 / psy_rd=1.00:0.00 / mixed_ref=1 / me_range=16 / chroma_me=1 / trellis=2 / 8x8dct=1 / cqm=0 / deadzone=21,11 / fast_pskip=1 / chroma_qp_offset=-2 / threads=13 / lookahead_threads=2 / sliced_threads=0 / nr=0 / decimate=1 / interlaced=0 / bluray_compat=0 / constrained_intra=0 / bframes=3 / b_pyramid=2 / b_adapt=1 / b_bias=0 / direct=1 / weightb=1 / open_gop=0 / weightp=2 / keyint=240 / keyint_min=23 / scenecut=40 / intra_refresh=0 / rc_lookahead=50 / rc=crf / mbtree=1 / crf=19.0 / qcomp=0.60 / qpmin=0 / qpmax=69 / qpstep=4 / vbv_maxrate=17500 / vbv_bufsize=17500 / crf_max=0.0 / nal_hrd=none / filler=0 / ip_ratio=1.40 / aq=1:1.00
Language : English
Default : Yes
Forced : No
Color range : Limited
Color primaries : BT.709
Matrix coefficients : BT.709

Audio
ID : 2
Format : AAC
Format/Info : Advanced Audio Codec
Format profile : LC
Codec ID : A_AAC-2
Duration : 41 min 54 s
Bit rate : 466 kb/s
Channel(s) : 6 channels
Channel positions : Front: L C R, Side: L R, LFE
Sampling rate : 48.0 kHz
Frame rate : 46.875 FPS (1024 SPF)
Compression mode : Lossy
Delay relative to video : 9 ms
Stream size : 140 MiB (35%)
Default : Yes
Forced : No

Text
ID : 3
Format : UTF-8
Codec ID : S_TEXT/UTF8
Codec ID/Info : UTF-8 Plain Text
Duration : 41 min 48 s
Bit rate : 121 b/s
Count of elements : 949
Stream size : 37.2 KiB (0%)
Language : English
Default : No
Forced : No





Tyler Perry's Sistas S01E25


Tyler Perry's Sistas S01E25


Tyler Perry's Sistas S01E25


Tyler Perry's Sistas S01E25


Tyler Perry's Sistas S01E25