Tyler Perry's Sistas S02E03

TV Series
Tyler Perry's Sistas S02E03

Tyler Perry's Sistas S02E03
HDTV | MKV | 1920x1080 | H264 @ 5368 kbps | AC-3 @ 384 kbps | 42 min 9 s | 1.69 GiB
Subtitles: English
Genre: Comedy, Drama


There's nothing that bonds a group of single black women together more than sidestepping the land mines of living, working and dating in Atlanta. In a sea of swipe-lefts, social media drama and unrealistic #relationshipgoals, these friends try to find their Mr. Right.

bdf3a295a0caa6c2c8f576aa16c0dcf3.mkv (1.7 GB)



General
Unique ID : 262649873463917336062000837919401851806 (0xC598868EFDAA59CD4153353399843B9E)
Complete name : ./bdf3a295a0caa6c2c8f576aa16c0dcf3.mkv
Format : Matroska
Format version : Version 4 / Version 2
File size : 1.69 GiB
Duration : 42 min 9 s
Overall bit rate : 5 755 kb/s
Encoded date : UTC 2020-10-22 04:09:13
Writing application : mkvmerge v51.0.0 ('I Wish') 64-bit
Writing library : libebml v1.4.0 + libmatroska v1.6.2

Video
ID : 1
Format : AVC
Format/Info : Advanced Video Codec
Format profile : High@L4.1
Format settings : CABAC / 4 Ref Frames
Format settings, CABAC : Yes
Format settings, RefFrames : 4 frames
Codec ID : V_MPEG4/ISO/AVC
Duration : 42 min 9 s
Bit rate : 5 369 kb/s
Width : 1 920 pixels
Height : 1 080 pixels
Display aspect ratio : 16:9
Frame rate mode : Constant
Frame rate : 23.976 (24000/1001) FPS
Color space : YUV
Chroma subsampling : 4:2:0
Bit depth : 8 bits
Scan type : Progressive
Bits/(Pixel*Frame) : 0.108
Stream size : 1.58 GiB (93%)
Writing library : x264 core 161 r3018 db0d417
Encoding settings : cabac=1 / ref=4 / deblock=1:0:0 / analyse=0x3:0x113 / me=hex / subme=8 / psy=1 / psy_rd=1.00:0.00 / mixed_ref=1 / me_range=16 / chroma_me=1 / trellis=2 / 8x8dct=1 / cqm=0 / deadzone=21,11 / fast_pskip=1 / chroma_qp_offset=-2 / threads=18 / lookahead_threads=3 / sliced_threads=0 / nr=0 / decimate=1 / interlaced=0 / bluray_compat=0 / constrained_intra=0 / bframes=3 / b_pyramid=2 / b_adapt=1 / b_bias=0 / direct=1 / weightb=1 / open_gop=0 / weightp=2 / keyint=240 / keyint_min=23 / scenecut=40 / intra_refresh=0 / rc_lookahead=50 / rc=crf / mbtree=1 / crf=18.0 / qcomp=0.60 / qpmin=0 / qpmax=69 / qpstep=4 / vbv_maxrate=62500 / vbv_bufsize=78125 / crf_max=0.0 / nal_hrd=none / filler=0 / ip_ratio=1.40 / aq=1:1.00
Language : English
Default : Yes
Forced : No
Color range : Limited
Color primaries : BT.709
Matrix coefficients : BT.709

Audio
ID : 2
Format : AC-3
Format/Info : Audio Coding 3
Format settings, Endianness : Big
Codec ID : A_AC3
Duration : 42 min 9 s
Bit rate mode : Constant
Bit rate : 384 kb/s
Channel(s) : 6 channels
Channel positions : Front: L C R, Side: L R, LFE
Sampling rate : 48.0 kHz
Frame rate : 31.250 FPS (1536 SPF)
Bit depth : 16 bits
Compression mode : Lossy
Delay relative to video : 56 ms
Stream size : 116 MiB (7%)
Service kind : Complete Main
Default : Yes
Forced : No

Text
ID : 3
Format : UTF-8
Codec ID : S_TEXT/UTF8
Codec ID/Info : UTF-8 Plain Text
Duration : 42 min 7 s
Bit rate : 126 b/s
Count of elements : 852
Stream size : 38.9 KiB (0%)
Language : English
Default : No
Forced : No





Tyler Perry's Sistas S02E03


Tyler Perry's Sistas S02E03


Tyler Perry's Sistas S02E03


Tyler Perry's Sistas S02E03


Tyler Perry's Sistas S02E03