Ultras (2020)

Video
Ultras (2020)

Ultras (2020)
WEBRip | MOV | 1920x1080 | Français | H264 @ 2427 kbps | E-AC-3 @ 640 kbps | 1 h 49 min | 2.34 GiB
Genre: Drama

Une histoire d'amitié intergénérationnelle et de maturité, qui se déroule dans le monde de la culture ultras au cours des cinq dernières semaines d'un championnat de football.

Ultras.mp4 (2.3 GB)



General
Complete name : ./Ultras.mp4
Format : MPEG-4
Format profile : Base Media
Codec ID : isom (isom/iso2/avc1/mp41)
File size : 2.34 GiB
Duration : 1 h 49 min
Overall bit rate : 3 072 kb/s
Writing application : Lavf58.33.100

Video
ID : 1
Format : AVC
Format/Info : Advanced Video Codec
Format profile : High@L4
Format settings : CABAC / 3 Ref Frames
Format settings, CABAC : Yes
Format settings, RefFrames : 3 frames
Codec ID : avc1
Codec ID/Info : Advanced Video Coding
Duration : 1 h 49 min
Source duration : 1 min 41 s
Bit rate : 2 428 kb/s
Width : 1 920 pixels
Height : 1 080 pixels
Display aspect ratio : 16:9
Frame rate mode : Constant
Frame rate : 25.000 FPS
Color space : YUV
Chroma subsampling : 4:2:0
Bit depth : 8 bits
Scan type : Progressive
Bits/(Pixel*Frame) : 0.047
Stream size : 1.85 GiB (79%)
Source stream size : 1.85 GiB (79%)
mdhd_Duration : 6543720

Audio
ID : 2
Format : E-AC-3
Format/Info : Enhanced Audio Coding 3
Format settings, Endianness : Big
Codec ID : ec-3
Duration : 1 h 49 min
Bit rate mode : Constant
Bit rate : 640 kb/s
Channel(s) : 6 channels
Channel positions : Front: L C R, Side: L R, LFE
Sampling rate : 48.0 kHz
Frame rate : 187.500 FPS (256 SPF)
Bit depth : 16 bits
Compression mode : Lossy
Stream size : 499 MiB (21%)
Language : French
Service kind : Complete Main
Default : Yes
Alternate group : 1





Ultras (2020)


Ultras (2020)


Ultras (2020)


Ultras (2020)


Ultras (2020)