Welcome to Eden S01E06

TV Series
Welcome to Eden S01E06

Welcome to Eden S01E06
WEB-DL | MKV | 1280x720 | Español / English | H264 @ 2119 kbps | E-AC-3 @ 768 kbps | 36 min 14 s | 916 MiB
Subtitles: ภาษาไทย, Hrvatski, Français, tiếng Việt, Español, Magyar, 日本語, עברית, 한국어, Русский, Ελληνικά, Nederlands, Dansk, Bahasa Indonesia, Bokmål, 中文, Suomi, Polski, Türkçe, English, Română, العربية, Deutsch, Українська, Svenska, Italiano, Português, Čeština


Are you happy? With this question, Zoa and four other attractive young people, very active on social networks, are invited to the most exclusive party in history on a secret island, organized by the brand of a new drink. What begins as an exciting journey will soon become the journey of a lifetime. But paradise is not really what it seems - Welcome to Eden.

55511af04a1f4ff2807f495a80f36c4f.mkv (916.2 MB)



General
Unique ID : 312280241321968261012608899797932573315 (0xEAEEFC9DA15102CDFBBB1129A1640283)
Complete name : ./55511af04a1f4ff2807f495a80f36c4f.mkv
Format : Matroska
Format version : Version 4 / Version 2
File size : 916 MiB
Duration : 36 min 14 s
Overall bit rate mode : Variable
Overall bit rate : 3 534 kb/s
Writing application : mkvmerge v67.0.0 ('Under Stars') 64-bit
Writing library : libebml v1.4.2 + libmatroska v1.6.4

Video
ID : 1
Format : AVC
Format/Info : Advanced Video Codec
Format profile : Main@L3.1
Format settings : CABAC / 3 Ref Frames
Format settings, CABAC : Yes
Format settings, RefFrames : 3 frames
Codec ID : V_MPEG4/ISO/AVC
Duration : 36 min 14 s
Bit rate mode : Variable
Bit rate : 2 120 kb/s
Nominal bit rate : 1 796 kb/s
Maximum bit rate : 3 915 kb/s
Width : 1 280 pixels
Height : 720 pixels
Display aspect ratio : 16:9
Frame rate mode : Constant
Frame rate : 25.000 FPS
Color space : YUV
Chroma subsampling : 4:2:0
Bit depth : 8 bits
Scan type : Progressive
Bits/(Pixel*Frame) : 0.092
Stream size : 549 MiB (60%)
Writing library : x264 core 148 r2727 7d026e8
Encoding settings : cabac=1 / ref=3 / deblock=1:0:0 / analyse=0x1:0x111 / me=umh / subme=10 / psy=1 / psy_rd=1.00:0.00 / mixed_ref=1 / me_range=24 / chroma_me=1 / trellis=2 / 8x8dct=0 / cqm=0 / deadzone=21,11 / fast_pskip=1 / chroma_qp_offset=-2 / threads=8 / lookahead_threads=1 / sliced_threads=0 / nr=0 / decimate=1 / interlaced=0 / bluray_compat=0 / stitchable=1 / constrained_intra=0 / bframes=2 / b_pyramid=0 / b_adapt=2 / b_bias=0 / direct=3 / weightb=1 / open_gop=0 / weightp=2 / keyint=250 / keyint_min=25 / scenecut=0 / intra_refresh=0 / rc_lookahead=50 / rc=2pass / mbtree=1 / bitrate=1796 / ratetol=1.0 / qcomp=0.50 / qpmin=6 / qpmax=51 / qpstep=4 / cplxblur=20.0 / qblur=0.5 / vbv_maxrate=3915 / vbv_bufsize=5220 / nal_hrd=vbr / filler=0 / ip_ratio=1.40 / aq=1:1.00
Default : Yes
Forced : No

Audio #1
ID : 2
Format : E-AC-3
Format/Info : Enhanced Audio Coding 3
Format profile : E-AC-3+Atmos / E-AC-3
Format settings, Endianness : Big
Codec ID : A_EAC3
Duration : 36 min 14 s
Bit rate mode : Constant
Bit rate : 768 kb/s
Channel(s) : 15 objects / 6 channels
Channel positions : 15 objects / Front: L C R, Side: L R, LFE
Sampling rate : 48.0 kHz
Frame rate : 187.500 FPS (256 SPF)
Compression mode : Lossy
Stream size : 199 MiB (22%)
Language : Spanish
Service kind : Complete Main
Default : Yes
Forced : No

Audio #2
ID : 3
Format : E-AC-3
Format/Info : Enhanced Audio Coding 3
Format settings, Endianness : Big
Codec ID : A_EAC3
Duration : 36 min 14 s
Bit rate mode : Constant
Bit rate : 640 kb/s
Channel(s) : 6 channels
Channel positions : Front: L C R, Side: L R, LFE
Sampling rate : 48.0 kHz
Frame rate : 187.500 FPS (256 SPF)
Compression mode : Lossy
Stream size : 166 MiB (18%)
Language : English
Service kind : Complete Main
Default : No
Forced : No

Text #1
ID : 4
Format : UTF-8
Codec ID : S_TEXT/UTF8
Codec ID/Info : UTF-8 Plain Text
Duration : 35 min 10 s
Bit rate : 1 b/s
Count of elements : 16
Stream size : 436 Bytes (0%)
Title : Forced
Language : English
Default : No
Forced : No

Text #2
ID : 5
Format : UTF-8
Codec ID : S_TEXT/UTF8
Codec ID/Info : UTF-8 Plain Text
Duration : 35 min 5 s
Bit rate : 67 b/s
Count of elements : 560
Stream size : 17.3 KiB (0%)
Title : SDH
Language : Spanish
Default : No
Forced : No

Text #3
ID : 6
Format : UTF-8
Codec ID : S_TEXT/UTF8
Codec ID/Info : UTF-8 Plain Text
Duration : 35 min 10 s
Bit rate : 100 b/s
Count of elements : 437
Stream size : 25.9 KiB (0%)
Language : Arabic
Default : No
Forced : No

Text #4
ID : 7
Format : UTF-8
Codec ID : S_TEXT/UTF8
Codec ID/Info : UTF-8 Plain Text
Duration : 35 min 10 s
Bit rate : 54 b/s
Count of elements : 437
Stream size : 13.9 KiB (0%)
Language : Czech
Default : No
Forced : No

Text #5
ID : 8
Format : UTF-8
Codec ID : S_TEXT/UTF8
Codec ID/Info : UTF-8 Plain Text
Duration : 35 min 10 s
Bit rate : 51 b/s
Count of elements : 432
Stream size : 13.2 KiB (0%)
Language : Danish
Default : No
Forced : No

Text #6
ID : 9
Format : UTF-8
Codec ID : S_TEXT/UTF8
Codec ID/Info : UTF-8 Plain Text
Duration : 35 min 10 s
Bit rate : 53 b/s
Count of elements : 428
Stream size : 13.8 KiB (0%)
Language : German
Default : No
Forced : No

Text #7
ID : 10
Format : UTF-8
Codec ID : S_TEXT/UTF8
Codec ID/Info : UTF-8 Plain Text
Duration : 35 min 10 s
Bit rate : 90 b/s
Count of elements : 441
Stream size : 23.4 KiB (0%)
Language : Greek
Default : No
Forced : No

Text #8
ID : 11
Format : UTF-8
Codec ID : S_TEXT/UTF8
Codec ID/Info : UTF-8 Plain Text
Duration : 35 min 10 s
Bit rate : 61 b/s
Count of elements : 473
Stream size : 15.7 KiB (0%)
Language : English
Default : No
Forced : No

Text #9
ID : 12
Format : UTF-8
Codec ID : S_TEXT/UTF8
Codec ID/Info : UTF-8 Plain Text
Duration : 35 min 10 s
Bit rate : 55 b/s
Count of elements : 430
Stream size : 14.2 KiB (0%)
Language : English
Default : No
Forced : No

Text #10
ID : 13
Format : UTF-8
Codec ID : S_TEXT/UTF8
Codec ID/Info : UTF-8 Plain Text
Duration : 35 min 10 s
Bit rate : 77 b/s
Count of elements : 600
Stream size : 19.9 KiB (0%)
Title : SDH
Language : English
Default : No
Forced : No

Text #11
ID : 14
Format : UTF-8
Codec ID : S_TEXT/UTF8
Codec ID/Info : UTF-8 Plain Text
Duration : 35 min 10 s
Bit rate : 53 b/s
Count of elements : 349
Stream size : 13.8 KiB (0%)
Language : Finnish
Default : No
Forced : No

Text #12
ID : 15
Format : UTF-8
Codec ID : S_TEXT/UTF8
Codec ID/Info : UTF-8 Plain Text
Duration : 35 min 10 s
Bit rate : 54 b/s
Count of elements : 445
Stream size : 13.9 KiB (0%)
Language : French
Default : No
Forced : No

Text #13
ID : 16
Format : UTF-8
Codec ID : S_TEXT/UTF8
Codec ID/Info : UTF-8 Plain Text
Duration : 35 min 10 s
Bit rate : 89 b/s
Count of elements : 435
Stream size : 23.0 KiB (0%)
Language : Hebrew
Default : No
Forced : No

Text #14
ID : 17
Format : UTF-8
Codec ID : S_TEXT/UTF8
Codec ID/Info : UTF-8 Plain Text
Duration : 35 min 10 s
Bit rate : 47 b/s
Count of elements : 464
Stream size : 12.3 KiB (0%)
Language : Croatian
Default : No
Forced : No

Text #15
ID : 18
Format : UTF-8
Codec ID : S_TEXT/UTF8
Codec ID/Info : UTF-8 Plain Text
Duration : 35 min 8 s
Bit rate : 56 b/s
Count of elements : 432
Stream size : 14.4 KiB (0%)
Language : Hungarian
Default : No
Forced : No

Text #16
ID : 19
Format : UTF-8
Codec ID : S_TEXT/UTF8
Codec ID/Info : UTF-8 Plain Text
Duration : 35 min 10 s
Bit rate : 56 b/s
Count of elements : 437
Stream size : 14.6 KiB (0%)
Language : Indonesian
Default : No
Forced : No

Text #17
ID : 20
Format : UTF-8
Codec ID : S_TEXT/UTF8
Codec ID/Info : UTF-8 Plain Text
Duration : 35 min 10 s
Bit rate : 55 b/s
Count of elements : 440
Stream size : 14.3 KiB (0%)
Language : Italian
Default : No
Forced : No

Text #18
ID : 21
Format : UTF-8
Codec ID : S_TEXT/UTF8
Codec ID/Info : UTF-8 Plain Text
Duration : 35 min 10 s
Bit rate : 59 b/s
Count of elements : 510
Stream size : 15.3 KiB (0%)
Language : Japanese
Default : No
Forced : No

Text #19
ID : 22
Format : UTF-8
Codec ID : S_TEXT/UTF8
Codec ID/Info : UTF-8 Plain Text
Duration : 35 min 10 s
Bit rate : 71 b/s
Count of elements : 435
Stream size : 18.4 KiB (0%)
Language : Korean
Default : No
Forced : No

Text #20
ID : 23
Format : UTF-8
Codec ID : S_TEXT/UTF8
Codec ID/Info : UTF-8 Plain Text
Duration : 35 min 10 s
Bit rate : 53 b/s
Count of elements : 436
Stream size : 13.7 KiB (0%)
Language : Malay
Default : No
Forced : No

Text #21
ID : 24
Format : UTF-8
Codec ID : S_TEXT/UTF8
Codec ID/Info : UTF-8 Plain Text
Duration : 35 min 10 s
Bit rate : 53 b/s
Count of elements : 423
Stream size : 13.7 KiB (0%)
Language : Norwegian Bokmal
Default : No
Forced : No

Text #22
ID : 25
Format : UTF-8
Codec ID : S_TEXT/UTF8
Codec ID/Info : UTF-8 Plain Text
Duration : 35 min 10 s
Bit rate : 53 b/s
Count of elements : 420
Stream size : 13.8 KiB (0%)
Language : Dutch
Default : No
Forced : No

Text #23
ID : 26
Format : UTF-8
Codec ID : S_TEXT/UTF8
Codec ID/Info : UTF-8 Plain Text
Duration : 35 min 10 s
Bit rate : 50 b/s
Count of elements : 435
Stream size : 12.9 KiB (0%)
Language : Polish
Default : No
Forced : No

Text #24
ID : 27
Format : UTF-8
Codec ID : S_TEXT/UTF8
Codec ID/Info : UTF-8 Plain Text
Duration : 33 min 38 s
Bit rate : 64 b/s
Count of elements : 440
Stream size : 15.8 KiB (0%)
Title : Brazilian
Language : Portuguese
Default : No
Forced : No

Text #25
ID : 28
Format : UTF-8
Codec ID : S_TEXT/UTF8
Codec ID/Info : UTF-8 Plain Text
Duration : 33 min 37 s
Bit rate : 56 b/s
Count of elements : 426
Stream size : 13.9 KiB (0%)
Title : Brazilian
Language : Portuguese
Default : No
Forced : No

Text #26
ID : 29
Format : UTF-8
Codec ID : S_TEXT/UTF8
Codec ID/Info : UTF-8 Plain Text
Duration : 33 min 58 s
Bit rate : 74 b/s
Count of elements : 515
Stream size : 18.7 KiB (0%)
Title : Brazilian (SDH)
Language : Portuguese
Default : No
Forced : No

Text #27
ID : 30
Format : UTF-8
Codec ID : S_TEXT/UTF8
Codec ID/Info : UTF-8 Plain Text
Duration : 35 min 10 s
Bit rate : 52 b/s
Count of elements : 427
Stream size : 13.6 KiB (0%)
Language : Portuguese
Default : No
Forced : No

Text #28
ID : 31
Format : UTF-8
Codec ID : S_TEXT/UTF8
Codec ID/Info : UTF-8 Plain Text
Duration : 35 min 10 s
Bit rate : 60 b/s
Count of elements : 447
Stream size : 15.6 KiB (0%)
Language : Romanian
Default : No
Forced : No

Text #29
ID : 32
Format : UTF-8
Codec ID : S_TEXT/UTF8
Codec ID/Info : UTF-8 Plain Text
Duration : 35 min 10 s
Bit rate : 89 b/s
Count of elements : 450
Stream size : 23.0 KiB (0%)
Language : Russian
Default : No
Forced : No

Text #30
ID : 33
Format : UTF-8
Codec ID : S_TEXT/UTF8
Codec ID/Info : UTF-8 Plain Text
Duration : 35 min 10 s
Bit rate : 52 b/s
Count of elements : 422
Stream size : 13.4 KiB (0%)
Language : Swedish
Default : No
Forced : No

Text #31
ID : 34
Format : UTF-8
Codec ID : S_TEXT/UTF8
Codec ID/Info : UTF-8 Plain Text
Duration : 35 min 10 s
Bit rate : 141 b/s
Count of elements : 448
Stream size : 36.3 KiB (0%)
Language : Thai
Default : No
Forced : No

Text #32
ID : 35
Format : UTF-8
Codec ID : S_TEXT/UTF8
Codec ID/Info : UTF-8 Plain Text
Duration : 35 min 10 s
Bit rate : 53 b/s
Count of elements : 438
Stream size : 13.8 KiB (0%)
Language : Turkish
Default : No
Forced : No

Text #33
ID : 36
Format : UTF-8
Codec ID : S_TEXT/UTF8
Codec ID/Info : UTF-8 Plain Text
Duration : 35 min 7 s
Bit rate : 83 b/s
Count of elements : 442
Stream size : 21.5 KiB (0%)
Language : Ukrainian
Default : No
Forced : No

Text #34
ID : 37
Format : UTF-8
Codec ID : S_TEXT/UTF8
Codec ID/Info : UTF-8 Plain Text
Duration : 35 min 10 s
Bit rate : 77 b/s
Count of elements : 433
Stream size : 20.0 KiB (0%)
Language : Vietnamese
Default : No
Forced : No

Text #35
ID : 38
Format : UTF-8
Codec ID : S_TEXT/UTF8
Codec ID/Info : UTF-8 Plain Text
Duration : 35 min 10 s
Bit rate : 65 b/s
Count of elements : 451
Stream size : 16.9 KiB (0%)
Title : Simplified
Language : Chinese
Default : No
Forced : No

Text #36
ID : 39
Format : UTF-8
Codec ID : S_TEXT/UTF8
Codec ID/Info : UTF-8 Plain Text
Duration : 35 min 10 s
Bit rate : 62 b/s
Count of elements : 442
Stream size : 16.0 KiB (0%)
Title : Traditional
Language : Chinese
Default : No
Forced : No

Menu
00:02:58.640 : en:Intro
00:03:20.020 : en:Intro End





Welcome to Eden S01E06


Welcome to Eden S01E06


Welcome to Eden S01E06


Welcome to Eden S01E06


Welcome to Eden S01E06