White Lines S01E10

TV Series
White Lines S01E10

White Lines S01E10
WEBRip | MKV | 1280x608 | हिन्दी / English | H264 @ 1030 kbps | AAC @ 127 kbps | 1 h 3 min | 563 MiB
Subtitles: English




86c5d6ef72d08b4c179a584578a7b0ed.mkv (562.8 MB)



General
Unique ID : 303356550177434827749024400760730550009 (0xE43858AC716FD12783ACB2489C0BFEF9)
Complete name : ./86c5d6ef72d08b4c179a584578a7b0ed.mkv
Format : Matroska
Format version : Version 4 / Version 2
File size : 563 MiB
Duration : 1 h 3 min
Overall bit rate : 1 244 kb/s
Movie name : MoviePirate.in - Team Telly
Encoded date : UTC 2020-05-15 10:55:29
Writing application : mkvmerge v39.0.0 ('In The Waiting Line') 64-bit
Writing library : libebml v1.3.9 + libmatroska v1.5.2

Video
ID : 1
Format : AVC
Format/Info : Advanced Video Codec
Format profile : High@L4.1
Format settings : CABAC / 4 Ref Frames
Format settings, CABAC : Yes
Format settings, RefFrames : 4 frames
Codec ID : V_MPEG4/ISO/AVC
Duration : 1 h 3 min
Bit rate : 1 030 kb/s
Width : 1 280 pixels
Height : 608 pixels
Display aspect ratio : 2.105
Frame rate mode : Constant
Frame rate : 25.000 FPS
Color space : YUV
Chroma subsampling : 4:2:0
Bit depth : 8 bits
Scan type : Progressive
Bits/(Pixel*Frame) : 0.053
Stream size : 446 MiB (79%)
Title : MoviePirate.in - Team Telly
Writing library : x264 core 157 r2969 d4099dd
Encoding settings : cabac=1 / ref=2 / deblock=1:0:0 / analyse=0x3:0x113 / me=hex / subme=6 / psy=1 / psy_rd=1.00:0.00 / mixed_ref=1 / me_range=16 / chroma_me=1 / trellis=1 / 8x8dct=1 / cqm=0 / deadzone=21,11 / fast_pskip=1 / chroma_qp_offset=-2 / threads=19 / lookahead_threads=3 / sliced_threads=0 / nr=0 / decimate=1 / interlaced=0 / bluray_compat=0 / constrained_intra=0 / bframes=3 / b_pyramid=2 / b_adapt=1 / b_bias=0 / direct=1 / weightb=1 / open_gop=0 / weightp=1 / keyint=250 / keyint_min=25 / scenecut=40 / intra_refresh=0 / rc_lookahead=30 / rc=abr / mbtree=1 / bitrate=1030 / ratetol=1.0 / qcomp=0.60 / qpmin=0 / qpmax=69 / qpstep=4 / ip_ratio=1.40 / aq=1:1.00
Default : Yes
Forced : No

Audio #1
ID : 2
Format : AAC
Format/Info : Advanced Audio Codec
Format profile : HE-AAC / LC
Format settings : Explicit
Codec ID : A_AAC-2
Duration : 1 h 3 min
Bit rate : 128 kb/s
Channel(s) : 6 channels
Channel(s)_Original : 20 channels
Channel positions : Front: 15, Side: L R, Back: C, LFE= 2
Sampling rate : 48.0 kHz / 24.0 kHz
Frame rate : 23.438 FPS (1024 SPF)
Compression mode : Lossy
Stream size : 57.9 MiB (10%)
Title : English
Language : English
Default : No
Forced : No

Audio #2
ID : 3
Format : AAC
Format/Info : Advanced Audio Codec
Format profile : HE-AAC / LC
Format settings : Explicit
Codec ID : A_AAC-2
Duration : 1 h 3 min
Bit rate : 128 kb/s
Channel(s) : 6 channels
Channel(s)_Original : 20 channels
Channel positions : Front: 15, Side: L R, Back: C, LFE= 2
Sampling rate : 48.0 kHz / 24.0 kHz
Frame rate : 23.438 FPS (1024 SPF)
Compression mode : Lossy
Stream size : 57.9 MiB (10%)
Title : Hindi
Language : Hindi
Default : No
Forced : No

Text #1
ID : 4
Format : UTF-8
Codec ID : S_TEXT/UTF8
Codec ID/Info : UTF-8 Plain Text
Duration : 1 h 1 min
Bit rate : 64 b/s
Count of elements : 976
Stream size : 29.4 KiB (0%)
Title : English
Language : English
Default : No
Forced : No

Text #2
ID : 5
Format : UTF-8
Codec ID : S_TEXT/UTF8
Codec ID/Info : UTF-8 Plain Text
Duration : 39 min 59 s
Bit rate : 5 b/s
Count of elements : 61
Stream size : 1.70 KiB (0%)
Title : English - [Forced]
Language : English
Default : No
Forced : Yes





White Lines S01E10


White Lines S01E10


White Lines S01E10


White Lines S01E10