World's Most Wanted S01E03

TV Series
World's Most Wanted S01E03

World's Most Wanted S01E03
WEBRip | MKV | 1920x1080 | English | H264 @ 6490 kbps | E-AC-3 @ 640 kbps | 45 min 2 s | 2.19 GiB
Subtitles: ภาษาไทย, Hrvatski, Français, tiếng Việt, Español, Magyar, 日本語, עברית, 한국어, Русский, Ελληνικά, Nederlands, Dansk, Bahasa Indonesia, 中文, Suomi, Polski, Türkçe, English, Română, العربية, Deutsch, Svenska, Italiano, Português, Čeština
Genre: Documentary

Heinous criminals have avoided capture despite massive rewards and global investigations. This docuseries profiles some of the world’s most wanted.

5f32292e569a4070901aeedbe63c8e98.mkv (2.2 GB)



General
Unique ID : 237238091428526039261940612349208270421 (0xB27A64F8EA575A7F84B665B6B33B9655)
Complete name : ./5f32292e569a4070901aeedbe63c8e98.mkv
Format : Matroska
Format version : Version 4 / Version 2
File size : 2.19 GiB
Duration : 45 min 2 s
Overall bit rate mode : Variable
Overall bit rate : 6 946 kb/s
Encoded date : UTC 2020-08-05 18:47:41
Writing application : mkvmerge v45.0.0 ('Heaven in Pennies') 64-bit
Writing library : libebml v1.3.10 + libmatroska v1.5.2

Video
ID : 1
Format : AVC
Format/Info : Advanced Video Codec
Format profile : Main@L4
Format settings : CABAC / 3 Ref Frames
Format settings, CABAC : Yes
Format settings, RefFrames : 3 frames
Codec ID : V_MPEG4/ISO/AVC
Duration : 45 min 2 s
Bit rate mode : Variable
Bit rate : 6 490 kb/s
Maximum bit rate : 9 735 kb/s
Width : 1 920 pixels
Height : 1 080 pixels
Display aspect ratio : 16:9
Frame rate mode : Constant
Frame rate : 25.000 FPS
Color space : YUV
Chroma subsampling : 4:2:0
Bit depth : 8 bits
Scan type : Progressive
Bits/(Pixel*Frame) : 0.125
Stream size : 1.98 GiB (91%)
Writing library : x264 core 148 r2722 1b0121b
Encoding settings : cabac=1 / ref=3 / deblock=1:0:0 / analyse=0x1:0x111 / me=umh / subme=10 / psy=1 / psy_rd=1.00:0.00 / mixed_ref=1 / me_range=24 / chroma_me=1 / trellis=2 / 8x8dct=0 / cqm=0 / deadzone=21,11 / fast_pskip=1 / chroma_qp_offset=-2 / threads=6 / lookahead_threads=1 / sliced_threads=0 / nr=0 / decimate=1 / interlaced=0 / bluray_compat=0 / stitchable=1 / constrained_intra=0 / bframes=2 / b_pyramid=0 / b_adapt=2 / b_bias=0 / direct=3 / weightb=1 / open_gop=0 / weightp=2 / keyint=250 / keyint_min=25 / scenecut=0 / intra_refresh=0 / rc_lookahead=50 / rc=2pass / mbtree=1 / bitrate=6490 / ratetol=1.0 / qcomp=0.50 / qpmin=6 / qpmax=51 / qpstep=4 / cplxblur=20.0 / qblur=0.5 / vbv_maxrate=9735 / vbv_bufsize=12980 / nal_hrd=vbr / filler=0 / ip_ratio=1.40 / aq=1:1.00
Default : Yes
Forced : No

Audio
ID : 2
Format : E-AC-3
Format/Info : Enhanced Audio Coding 3
Format settings, Endianness : Big
Codec ID : A_EAC3
Duration : 45 min 2 s
Bit rate mode : Constant
Bit rate : 640 kb/s
Channel(s) : 6 channels
Channel positions : Front: L C R, Side: L R, LFE
Sampling rate : 48.0 kHz
Frame rate : 187.500 FPS (256 SPF)
Compression mode : Lossy
Stream size : 206 MiB (9%)
Title : English
Language : English
Service kind : Complete Main
Default : Yes
Forced : No

Text #1
ID : 3
Format : UTF-8
Codec ID : S_TEXT/UTF8
Codec ID/Info : UTF-8 Plain Text
Duration : 35 min 22 s
Bit rate : 0 b/s
Count of elements : 4
Stream size : 91.0 Bytes (0%)
Title : English [Forced]
Language : English
Default : No
Forced : Yes

Text #2
ID : 4
Format : UTF-8
Codec ID : S_TEXT/UTF8
Codec ID/Info : UTF-8 Plain Text
Duration : 42 min 44 s
Bit rate : 73 b/s
Count of elements : 541
Stream size : 23.0 KiB (0%)
Title : English [Full]
Language : English
Default : No
Forced : No

Text #3
ID : 5
Format : UTF-8
Codec ID : S_TEXT/UTF8
Codec ID/Info : UTF-8 Plain Text
Duration : 43 min 46 s
Bit rate : 56 b/s
Count of elements : 467
Stream size : 18.2 KiB (0%)
Title : Castilian [Full]
Language : Spanish
Default : No
Forced : No

Text #4
ID : 6
Format : UTF-8
Codec ID : S_TEXT/UTF8
Codec ID/Info : UTF-8 Plain Text
Duration : 43 min 48 s
Bit rate : 63 b/s
Count of elements : 486
Stream size : 20.4 KiB (0%)
Title : Spanish [Full]
Language : Spanish
Default : No
Forced : No

Text #5
ID : 7
Format : UTF-8
Codec ID : S_TEXT/UTF8
Codec ID/Info : UTF-8 Plain Text
Duration : 43 min 46 s
Bit rate : 59 b/s
Count of elements : 473
Stream size : 19.1 KiB (0%)
Title : French [Full]
Language : French
Default : No
Forced : No

Text #6
ID : 8
Format : UTF-8
Codec ID : S_TEXT/UTF8
Codec ID/Info : UTF-8 Plain Text
Duration : 43 min 43 s
Bit rate : 59 b/s
Count of elements : 472
Stream size : 19.0 KiB (0%)
Title : German [Full]
Language : German
Default : No
Forced : No

Text #7
ID : 9
Format : UTF-8
Codec ID : S_TEXT/UTF8
Codec ID/Info : UTF-8 Plain Text
Duration : 42 min 47 s
Bit rate : 63 b/s
Count of elements : 449
Stream size : 20.0 KiB (0%)
Title : Italian [Full]
Language : Italian
Default : No
Forced : No

Text #8
ID : 10
Format : UTF-8
Codec ID : S_TEXT/UTF8
Codec ID/Info : UTF-8 Plain Text
Duration : 43 min 42 s
Bit rate : 62 b/s
Count of elements : 440
Stream size : 19.9 KiB (0%)
Title : Portuguese [Full]
Language : Portuguese
Default : No
Forced : No

Text #9
ID : 11
Format : UTF-8
Codec ID : S_TEXT/UTF8
Codec ID/Info : UTF-8 Plain Text
Duration : 42 min 47 s
Bit rate : 68 b/s
Count of elements : 467
Stream size : 21.4 KiB (0%)
Title : Brazilian Portuguese [Full]
Language : Portuguese
Default : No
Forced : No

Text #10
ID : 12
Format : UTF-8
Codec ID : S_TEXT/UTF8
Codec ID/Info : UTF-8 Plain Text
Duration : 43 min 42 s
Bit rate : 55 b/s
Count of elements : 436
Stream size : 17.9 KiB (0%)
Title : Polish [Full]
Language : Polish
Default : No
Forced : No

Text #11
ID : 13
Format : UTF-8
Codec ID : S_TEXT/UTF8
Codec ID/Info : UTF-8 Plain Text
Duration : 43 min 43 s
Bit rate : 60 b/s
Count of elements : 455
Stream size : 19.3 KiB (0%)
Title : Turkish [Full]
Language : Turkish
Default : No
Forced : No

Text #12
ID : 14
Format : UTF-8
Codec ID : S_TEXT/UTF8
Codec ID/Info : UTF-8 Plain Text
Duration : 43 min 43 s
Bit rate : 64 b/s
Count of elements : 418
Stream size : 20.5 KiB (0%)
Title : Swedish [Full]
Language : Swedish
Default : No
Forced : No

Text #13
ID : 15
Format : UTF-8
Codec ID : S_TEXT/UTF8
Codec ID/Info : UTF-8 Plain Text
Duration : 43 min 38 s
Bit rate : 52 b/s
Count of elements : 462
Stream size : 16.9 KiB (0%)
Title : Danish [Full]
Language : Danish
Default : No
Forced : No

Text #14
ID : 16
Format : UTF-8
Codec ID : S_TEXT/UTF8
Codec ID/Info : UTF-8 Plain Text
Duration : 43 min 46 s
Bit rate : 51 b/s
Count of elements : 367
Stream size : 16.6 KiB (0%)
Title : Finnish [Full]
Language : Finnish
Default : No
Forced : No

Text #15
ID : 17
Format : UTF-8
Codec ID : S_TEXT/UTF8
Codec ID/Info : UTF-8 Plain Text
Duration : 43 min 46 s
Bit rate : 55 b/s
Count of elements : 416
Stream size : 17.8 KiB (0%)
Title : Dutch [Full]
Language : Dutch
Default : No
Forced : No

Text #16
ID : 18
Format : UTF-8
Codec ID : S_TEXT/UTF8
Codec ID/Info : UTF-8 Plain Text
Duration : 43 min 34 s
Bit rate : 52 b/s
Count of elements : 384
Stream size : 16.6 KiB (0%)
Title : Norwegian [Full]
Language : Norwegian
Default : No
Forced : No

Text #17
ID : 19
Format : UTF-8
Codec ID : S_TEXT/UTF8
Codec ID/Info : UTF-8 Plain Text
Duration : 43 min 46 s
Bit rate : 102 b/s
Count of elements : 472
Stream size : 32.9 KiB (0%)
Title : Russian [Full]
Language : Russian
Default : No
Forced : No

Text #18
ID : 20
Format : UTF-8
Codec ID : S_TEXT/UTF8
Codec ID/Info : UTF-8 Plain Text
Duration : 43 min 51 s
Bit rate : 60 b/s
Count of elements : 474
Stream size : 19.6 KiB (0%)
Title : Hungarian [Full]
Language : Hungarian
Default : No
Forced : No

Text #19
ID : 21
Format : UTF-8
Codec ID : S_TEXT/UTF8
Codec ID/Info : UTF-8 Plain Text
Duration : 43 min 55 s
Bit rate : 54 b/s
Count of elements : 472
Stream size : 17.5 KiB (0%)
Title : Croatian [Full]
Language : Croatian
Default : No
Forced : No

Text #20
ID : 22
Format : UTF-8
Codec ID : S_TEXT/UTF8
Codec ID/Info : UTF-8 Plain Text
Duration : 42 min 46 s
Bit rate : 109 b/s
Count of elements : 479
Stream size : 34.2 KiB (0%)
Title : Greek [Full]
Language : Greek
Default : No
Forced : No

Text #21
ID : 23
Format : UTF-8
Codec ID : S_TEXT/UTF8
Codec ID/Info : UTF-8 Plain Text
Duration : 43 min 46 s
Bit rate : 98 b/s
Count of elements : 482
Stream size : 31.5 KiB (0%)
Title : Hebrew [Full]
Language : Hebrew
Default : No
Forced : No

Text #22
ID : 24
Format : UTF-8
Codec ID : S_TEXT/UTF8
Codec ID/Info : UTF-8 Plain Text
Duration : 43 min 46 s
Bit rate : 102 b/s
Count of elements : 478
Stream size : 32.7 KiB (0%)
Title : Arabic [Full]
Language : Arabic
Default : No
Forced : No

Text #23
ID : 25
Format : UTF-8
Codec ID : S_TEXT/UTF8
Codec ID/Info : UTF-8 Plain Text
Duration : 43 min 55 s
Bit rate : 64 b/s
Count of elements : 471
Stream size : 20.8 KiB (0%)
Title : Romanian [Full]
Language : Romanian
Default : No
Forced : No

Text #24
ID : 26
Format : UTF-8
Codec ID : S_TEXT/UTF8
Codec ID/Info : UTF-8 Plain Text
Duration : 43 min 55 s
Bit rate : 61 b/s
Count of elements : 460
Stream size : 19.7 KiB (0%)
Title : Czech [Full]
Language : Czech
Default : No
Forced : No

Text #25
ID : 27
Format : UTF-8
Codec ID : S_TEXT/UTF8
Codec ID/Info : UTF-8 Plain Text
Duration : 43 min 50 s
Bit rate : 59 b/s
Count of elements : 467
Stream size : 19.1 KiB (0%)
Title : Indonesian [Full]
Language : Indonesian
Default : No
Forced : No

Text #26
ID : 28
Format : UTF-8
Codec ID : S_TEXT/UTF8
Codec ID/Info : UTF-8 Plain Text
Duration : 43 min 46 s
Bit rate : 85 b/s
Count of elements : 465
Stream size : 27.4 KiB (0%)
Title : Vietnamese [Full]
Language : Vietnamese
Default : No
Forced : No

Text #27
ID : 29
Format : UTF-8
Codec ID : S_TEXT/UTF8
Codec ID/Info : UTF-8 Plain Text
Duration : 43 min 53 s
Bit rate : 171 b/s
Count of elements : 523
Stream size : 55.2 KiB (0%)
Title : Thai [Full]
Language : Thai
Default : No
Forced : No

Text #28
ID : 30
Format : UTF-8
Codec ID : S_TEXT/UTF8
Codec ID/Info : UTF-8 Plain Text
Duration : 43 min 46 s
Bit rate : 78 b/s
Count of elements : 495
Stream size : 25.3 KiB (0%)
Title : Korean [Full]
Language : Korean
Default : No
Forced : No

Text #29
ID : 31
Format : UTF-8
Codec ID : S_TEXT/UTF8
Codec ID/Info : UTF-8 Plain Text
Duration : 43 min 46 s
Bit rate : 65 b/s
Count of elements : 484
Stream size : 21.0 KiB (0%)
Title : Chinese (Simplified) [Full]
Language : Chinese
Default : No
Forced : No

Text #30
ID : 32
Format : UTF-8
Codec ID : S_TEXT/UTF8
Codec ID/Info : UTF-8 Plain Text
Duration : 43 min 55 s
Bit rate : 56 b/s
Count of elements : 483
Stream size : 18.1 KiB (0%)
Title : Chinese (Traditional) [Full]
Language : Chinese
Default : No
Forced : No

Text #31
ID : 33
Format : UTF-8
Codec ID : S_TEXT/UTF8
Codec ID/Info : UTF-8 Plain Text
Duration : 43 min 46 s
Bit rate : 61 b/s
Count of elements : 465
Stream size : 19.7 KiB (0%)
Title : Japanese [Full]
Language : Japanese
Default : No
Forced : No





World's Most Wanted S01E03


World's Most Wanted S01E03


World's Most Wanted S01E03


World's Most Wanted S01E03


World's Most Wanted S01E03