Wynonna Earp S03E04

TV Series
Wynonna Earp S03E04

Wynonna Earp S03E04
WEB-DL | MKV | 1920x1080 | English | H264 @ 9999 kbps | E-AC-3 @ 256 kbps | 43 min 9 s | 3.07 GiB
Subtitles: English
Genre: Western


Wyatt Earp's great granddaughter Wynonna battles demons and other creatures with her unique abilities and a posse of dysfunctional allies - the only thing that can bring the paranormal to justice.

1af34fcef5f6420b90cfa709a9643b89.mkv (3.1 GB)



General
Unique ID : 28894521498224628015344951895766403475 (0x15BCE1E62908132333B8CCA94B1D0993)
Complete name : ./1af34fcef5f6420b90cfa709a9643b89.mkv
Format : Matroska
Format version : Version 4 / Version 2
File size : 3.07 GiB
Duration : 43 min 9 s
Overall bit rate : 10.2 Mb/s
Encoded date : UTC 2018-08-14 01:02:53
Writing application : mkvmerge v25.0.0 ('Prog Noir') 64-bit
Writing library : libebml v1.3.6 + libmatroska v1.4.9

Video
ID : 1
Format : AVC
Format/Info : Advanced Video Codec
Format profile : High@L4
Format settings : CABAC / 4 Ref Frames
Format settings, CABAC : Yes
Format settings, RefFrames : 4 frames
Codec ID : V_MPEG4/ISO/AVC
Duration : 43 min 9 s
Bit rate mode : Constant
Bit rate : 10 000 kb/s
Width : 1 920 pixels
Height : 1 080 pixels
Display aspect ratio : 16:9
Frame rate mode : Constant
Frame rate : 23.976 (24000/1001) FPS
Color space : YUV
Chroma subsampling : 4:2:0
Bit depth : 8 bits
Scan type : Progressive
Bits/(Pixel*Frame) : 0.201
Stream size : 2.99 GiB (97%)
Language : English
Default : Yes
Forced : No
Color range : Limited
Color primaries : BT.709
Transfer characteristics : BT.709
Matrix coefficients : BT.709

Audio
ID : 2
Format : E-AC-3
Format/Info : Enhanced Audio Coding 3
Format settings, Endianness : Big
Codec ID : A_EAC3
Duration : 43 min 9 s
Bit rate mode : Constant
Bit rate : 256 kb/s
Channel(s) : 6 channels
Channel positions : Front: L C R, Side: L R, LFE
Sampling rate : 48.0 kHz
Frame rate : 187.500 FPS (256 SPF)
Compression mode : Lossy
Stream size : 79.0 MiB (3%)
Language : English
Service kind : Complete Main
Default : Yes
Forced : No

Text #1
ID : 3
Format : UTF-8
Codec ID : S_TEXT/UTF8
Codec ID/Info : UTF-8 Plain Text
Duration : 42 min 40 s
Bit rate : 80 b/s
Count of elements : 733
Stream size : 25.3 KiB (0%)
Language : English
Default : No
Forced : No

Text #2
ID : 4
Format : UTF-8
Codec ID : S_TEXT/UTF8
Codec ID/Info : UTF-8 Plain Text
Duration : 42 min 40 s
Bit rate : 88 b/s
Count of elements : 763
Stream size : 27.6 KiB (0%)
Title : SDH
Language : English
Default : No
Forced : No





Wynonna Earp S03E04


Wynonna Earp S03E04


Wynonna Earp S03E04


Wynonna Earp S03E04


Wynonna Earp S03E04