#blackAF S01E08

TV Series
#blackAF S01E08

#blackAF S01E08
WEBRip | MKV | 1920x1080 | English | H264 @ 6810 kbps | E-AC-3 @ 768 kbps | 36 min 20 s | 1.92 GiB
Subtitles: ภาษาไทย, Français, tiếng Việt, Español, Magyar, 日本語, עברית, 한국어, Русский, Ελληνικά, Nederlands, Dansk, Bahasa Indonesia, Bokmål, 中文, Suomi, Polski, Türkçe, English, Română, العربية, Deutsch, Svenska, Italiano, Português, Čeština
Genre: Comedy


A father takes an irreverent and honest approach to parenting and relationships.

a6ace59da8ef442091ccfffe02b3b74a.mkv (1.9 GB)



General
Unique ID : 171484560996377703726916232125503429445 (0x8102B9A04DF2BF2E086BF60B4C66DB45)
Complete name : ./a6ace59da8ef442091ccfffe02b3b74a.mkv
Format : Matroska
Format version : Version 4 / Version 2
File size : 1.92 GiB
Duration : 36 min 20 s
Overall bit rate mode : Variable
Overall bit rate : 7 550 kb/s
Encoded date : UTC 2020-04-17 07:09:14
Writing application : mkvmerge v44.0.0 ('Domino') 64-bit
Writing library : libebml v1.3.10 + libmatroska v1.5.2

Video
ID : 1
Format : AVC
Format/Info : Advanced Video Codec
Format profile : Main@L4
Format settings : CABAC / 3 Ref Frames
Format settings, CABAC : Yes
Format settings, RefFrames : 3 frames
Codec ID : V_MPEG4/ISO/AVC
Duration : 36 min 20 s
Bit rate mode : Variable
Bit rate : 6 810 kb/s
Maximum bit rate : 10.2 Mb/s
Width : 1 920 pixels
Height : 1 080 pixels
Display aspect ratio : 16:9
Frame rate mode : Constant
Frame rate : 23.976 (24000/1001) FPS
Color space : YUV
Chroma subsampling : 4:2:0
Bit depth : 8 bits
Scan type : Progressive
Bits/(Pixel*Frame) : 0.137
Stream size : 1.72 GiB (90%)
Writing library : x264 core 148 r2717 0d2410d
Encoding settings : cabac=1 / ref=3 / deblock=1:0:0 / analyse=0x1:0x111 / me=umh / subme=10 / psy=1 / psy_rd=1.00:0.00 / mixed_ref=1 / me_range=24 / chroma_me=1 / trellis=2 / 8x8dct=0 / cqm=0 / deadzone=21,11 / fast_pskip=1 / chroma_qp_offset=-2 / threads=6 / lookahead_threads=1 / sliced_threads=0 / nr=0 / decimate=1 / interlaced=0 / bluray_compat=0 / stitchable=1 / constrained_intra=0 / bframes=2 / b_pyramid=0 / b_adapt=2 / b_bias=0 / direct=3 / weightb=1 / open_gop=0 / weightp=2 / keyint=250 / keyint_min=23 / scenecut=0 / intra_refresh=0 / rc_lookahead=48 / rc=2pass / mbtree=1 / bitrate=6810 / ratetol=1.0 / qcomp=0.50 / qpmin=6 / qpmax=51 / qpstep=4 / cplxblur=20.0 / qblur=0.5 / vbv_maxrate=10215 / vbv_bufsize=13620 / nal_hrd=vbr / filler=0 / ip_ratio=1.40 / aq=1:1.00
Default : Yes
Forced : No

Audio
ID : 2
Format : E-AC-3
Format/Info : Enhanced Audio Coding 3
Format profile : E-AC-3+Atmos / E-AC-3
Format settings, Endianness : Big
Codec ID : A_EAC3
Duration : 36 min 20 s
Bit rate mode : Constant
Bit rate : 768 kb/s
Channel(s) : 15 objects / 6 channels
Channel positions : 15 objects / Front: L C R, Side: L R, LFE
Sampling rate : 48.0 kHz
Frame rate : 187.500 FPS (256 SPF)
Compression mode : Lossy
Stream size : 200 MiB (10%)
Title : English
Language : English
Service kind : Complete Main
Default : Yes
Forced : No

Text #1
ID : 3
Format : UTF-8
Codec ID : S_TEXT/UTF8
Codec ID/Info : UTF-8 Plain Text
Duration : 35 min 27 s
Bit rate : 103 b/s
Count of elements : 802
Stream size : 26.9 KiB (0%)
Title : English
Language : English
Default : No
Forced : No

Text #2
ID : 4
Format : UTF-8
Codec ID : S_TEXT/UTF8
Codec ID/Info : UTF-8 Plain Text
Duration : 35 min 55 s
Bit rate : 152 b/s
Count of elements : 727
Stream size : 40.0 KiB (0%)
Title : Arabic
Language : Arabic
Default : No
Forced : No

Text #3
ID : 5
Format : UTF-8
Codec ID : S_TEXT/UTF8
Codec ID/Info : UTF-8 Plain Text
Duration : 35 min 55 s
Bit rate : 84 b/s
Count of elements : 725
Stream size : 22.2 KiB (0%)
Title : Simplified Chinese
Language : Chinese
Default : No
Forced : No

Text #4
ID : 6
Format : UTF-8
Codec ID : S_TEXT/UTF8
Codec ID/Info : UTF-8 Plain Text
Duration : 35 min 55 s
Bit rate : 83 b/s
Count of elements : 722
Stream size : 22.1 KiB (0%)
Title : Traditional Chinese
Language : Chinese
Default : No
Forced : No

Text #5
ID : 7
Format : UTF-8
Codec ID : S_TEXT/UTF8
Codec ID/Info : UTF-8 Plain Text
Duration : 35 min 55 s
Bit rate : 83 b/s
Count of elements : 723
Stream size : 22.0 KiB (0%)
Title : Czech
Language : Czech
Default : No
Forced : No

Text #6
ID : 8
Format : UTF-8
Codec ID : S_TEXT/UTF8
Codec ID/Info : UTF-8 Plain Text
Duration : 35 min 55 s
Bit rate : 82 b/s
Count of elements : 622
Stream size : 21.6 KiB (0%)
Title : Danish
Language : Danish
Default : No
Forced : No

Text #7
ID : 9
Format : UTF-8
Codec ID : S_TEXT/UTF8
Codec ID/Info : UTF-8 Plain Text
Duration : 35 min 33 s
Bit rate : 78 b/s
Count of elements : 604
Stream size : 20.4 KiB (0%)
Title : Dutch
Language : Dutch
Default : No
Forced : No

Text #8
ID : 10
Format : UTF-8
Codec ID : S_TEXT/UTF8
Codec ID/Info : UTF-8 Plain Text
Duration : 35 min 54 s
Bit rate : 79 b/s
Count of elements : 641
Stream size : 20.8 KiB (0%)
Title : Finnish
Language : Finnish
Default : No
Forced : No

Text #9
ID : 11
Format : UTF-8
Codec ID : S_TEXT/UTF8
Codec ID/Info : UTF-8 Plain Text
Duration : 35 min 55 s
Bit rate : 81 b/s
Count of elements : 697
Stream size : 21.4 KiB (0%)
Title : French
Language : French
Default : No
Forced : No

Text #10
ID : 12
Format : UTF-8
Codec ID : S_TEXT/UTF8
Codec ID/Info : UTF-8 Plain Text
Duration : 35 min 56 s
Bit rate : 81 b/s
Count of elements : 630
Stream size : 21.4 KiB (0%)
Title : German
Language : German
Default : No
Forced : No

Text #11
ID : 13
Format : UTF-8
Codec ID : S_TEXT/UTF8
Codec ID/Info : UTF-8 Plain Text
Duration : 35 min 55 s
Bit rate : 137 b/s
Count of elements : 698
Stream size : 36.3 KiB (0%)
Title : Greek
Language : Greek
Default : No
Forced : No

Text #12
ID : 14
Format : UTF-8
Codec ID : S_TEXT/UTF8
Codec ID/Info : UTF-8 Plain Text
Duration : 35 min 33 s
Bit rate : 134 b/s
Count of elements : 729
Stream size : 35.1 KiB (0%)
Title : Hebrew
Language : Hebrew
Default : No
Forced : No

Text #13
ID : 15
Format : UTF-8
Codec ID : S_TEXT/UTF8
Codec ID/Info : UTF-8 Plain Text
Duration : 35 min 55 s
Bit rate : 83 b/s
Count of elements : 697
Stream size : 22.1 KiB (0%)
Title : Hungarian
Language : Hungarian
Default : No
Forced : No

Text #14
ID : 16
Format : UTF-8
Codec ID : S_TEXT/UTF8
Codec ID/Info : UTF-8 Plain Text
Duration : 35 min 55 s
Bit rate : 79 b/s
Count of elements : 611
Stream size : 21.0 KiB (0%)
Title : Indonesian
Language : Indonesian
Default : No
Forced : No

Text #15
ID : 17
Format : UTF-8
Codec ID : S_TEXT/UTF8
Codec ID/Info : UTF-8 Plain Text
Duration : 35 min 55 s
Bit rate : 79 b/s
Count of elements : 696
Stream size : 21.1 KiB (0%)
Title : Italian
Language : Italian
Default : No
Forced : No

Text #16
ID : 18
Format : UTF-8
Codec ID : S_TEXT/UTF8
Codec ID/Info : UTF-8 Plain Text
Duration : 35 min 55 s
Bit rate : 72 b/s
Count of elements : 708
Stream size : 19.0 KiB (0%)
Title : Japanese
Language : Japanese
Default : No
Forced : No

Text #17
ID : 19
Format : UTF-8
Codec ID : S_TEXT/UTF8
Codec ID/Info : UTF-8 Plain Text
Duration : 35 min 55 s
Bit rate : 102 b/s
Count of elements : 728
Stream size : 27.1 KiB (0%)
Title : Korean
Language : Korean
Default : No
Forced : No

Text #18
ID : 20
Format : UTF-8
Codec ID : S_TEXT/UTF8
Codec ID/Info : UTF-8 Plain Text
Duration : 35 min 55 s
Bit rate : 79 b/s
Count of elements : 531
Stream size : 20.9 KiB (0%)
Title : Norwegian
Language : Norwegian Bokmal
Default : No
Forced : No

Text #19
ID : 21
Format : UTF-8
Codec ID : S_TEXT/UTF8
Codec ID/Info : UTF-8 Plain Text
Duration : 35 min 55 s
Bit rate : 73 b/s
Count of elements : 710
Stream size : 19.2 KiB (0%)
Title : Polish
Language : Polish
Default : No
Forced : No

Text #20
ID : 22
Format : UTF-8
Codec ID : S_TEXT/UTF8
Codec ID/Info : UTF-8 Plain Text
Duration : 35 min 55 s
Bit rate : 80 b/s
Count of elements : 694
Stream size : 21.3 KiB (0%)
Title : Portuguese
Language : Portuguese
Default : No
Forced : No

Text #21
ID : 23
Format : UTF-8
Codec ID : S_TEXT/UTF8
Codec ID/Info : UTF-8 Plain Text
Duration : 35 min 55 s
Bit rate : 80 b/s
Count of elements : 705
Stream size : 21.3 KiB (0%)
Title : Brazilian Portuguese
Language : Portuguese
Default : No
Forced : No

Text #22
ID : 24
Format : UTF-8
Codec ID : S_TEXT/UTF8
Codec ID/Info : UTF-8 Plain Text
Duration : 35 min 55 s
Bit rate : 86 b/s
Count of elements : 667
Stream size : 22.7 KiB (0%)
Title : Romanian
Language : Romanian
Default : No
Forced : No

Text #23
ID : 25
Format : UTF-8
Codec ID : S_TEXT/UTF8
Codec ID/Info : UTF-8 Plain Text
Duration : 35 min 54 s
Bit rate : 132 b/s
Count of elements : 715
Stream size : 35.0 KiB (0%)
Title : Russian
Language : Russian
Default : No
Forced : No

Text #24
ID : 26
Format : UTF-8
Codec ID : S_TEXT/UTF8
Codec ID/Info : UTF-8 Plain Text
Duration : 35 min 55 s
Bit rate : 85 b/s
Count of elements : 710
Stream size : 22.4 KiB (0%)
Title : Latin America Spanish
Language : Spanish
Default : No
Forced : No

Text #25
ID : 27
Format : UTF-8
Codec ID : S_TEXT/UTF8
Codec ID/Info : UTF-8 Plain Text
Duration : 35 min 55 s
Bit rate : 82 b/s
Count of elements : 653
Stream size : 21.8 KiB (0%)
Title : European Spanish
Language : Spanish
Default : No
Forced : No

Text #26
ID : 28
Format : UTF-8
Codec ID : S_TEXT/UTF8
Codec ID/Info : UTF-8 Plain Text
Duration : 35 min 55 s
Bit rate : 79 b/s
Count of elements : 596
Stream size : 20.8 KiB (0%)
Title : Swedish
Language : Swedish
Default : No
Forced : No

Text #27
ID : 29
Format : UTF-8
Codec ID : S_TEXT/UTF8
Codec ID/Info : UTF-8 Plain Text
Duration : 35 min 55 s
Bit rate : 227 b/s
Count of elements : 724
Stream size : 59.9 KiB (0%)
Title : Thai
Language : Thai
Default : No
Forced : No

Text #28
ID : 30
Format : UTF-8
Codec ID : S_TEXT/UTF8
Codec ID/Info : UTF-8 Plain Text
Duration : 35 min 55 s
Bit rate : 75 b/s
Count of elements : 612
Stream size : 19.8 KiB (0%)
Title : Turkish
Language : Turkish
Default : No
Forced : No

Text #29
ID : 31
Format : UTF-8
Codec ID : S_TEXT/UTF8
Codec ID/Info : UTF-8 Plain Text
Duration : 35 min 55 s
Bit rate : 117 b/s
Count of elements : 677
Stream size : 30.8 KiB (0%)
Title : Vietnamese
Language : Vietnamese
Default : No
Forced : No





#blackAF S01E08


#blackAF S01E08


#blackAF S01E08


#blackAF S01E08


#blackAF S01E08