Southern Survival S01E04

TV Series
Southern Survival S01E04

Southern Survival S01E04
WEBRip | MKV | 1920x1080 | English | H264 @ 7150 kbps | E-AC-3 @ 640 kbps | 30 min 52 s | 1.64 GiB
Subtitles: ภาษาไทย, Français, tiếng Việt, Español, Magyar, 日本語, עברית, 한국어, Русский, Ελληνικά, Nederlands, Dansk, Bahasa Indonesia, 中文, Suomi, Polski, Türkçe, English, Română, العربية, Deutsch, Svenska, Italiano, Português, Čeština


The BattlBox crew tests out products designed to help people survive dangerous situations, including explosions, natural disasters and intruders.

3703d1afcf4b97bb9e976cef413817d7.mkv (1.6 GB)



General
Unique ID : 229594209117487840107848538001465726536 (0xACBA3C7A34EF85EADFE861D00E94D648)
Complete name : ./3703d1afcf4b97bb9e976cef413817d7.mkv
Format : Matroska
Format version : Version 4 / Version 2
File size : 1.64 GiB
Duration : 30 min 52 s
Overall bit rate mode : Variable
Overall bit rate : 7 608 kb/s
Encoded date : UTC 2020-07-03 09:33:42
Writing application : mkvmerge v45.0.0 ('Heaven in Pennies') 64-bit
Writing library : libebml v1.3.10 + libmatroska v1.5.2

Video
ID : 1
Format : AVC
Format/Info : Advanced Video Codec
Format profile : Main@L4
Format settings : CABAC / 3 Ref Frames
Format settings, CABAC : Yes
Format settings, RefFrames : 3 frames
Codec ID : V_MPEG4/ISO/AVC
Duration : 30 min 52 s
Bit rate mode : Variable
Bit rate : 7 150 kb/s
Maximum bit rate : 10.7 Mb/s
Width : 1 920 pixels
Height : 1 080 pixels
Display aspect ratio : 16:9
Frame rate mode : Constant
Frame rate : 23.976 (24000/1001) FPS
Color space : YUV
Chroma subsampling : 4:2:0
Bit depth : 8 bits
Scan type : Progressive
Bits/(Pixel*Frame) : 0.144
Stream size : 1.50 GiB (91%)
Writing library : x264 core 148 r2717 0d2410d
Encoding settings : cabac=1 / ref=3 / deblock=1:0:0 / analyse=0x1:0x111 / me=umh / subme=10 / psy=1 / psy_rd=1.00:0.00 / mixed_ref=1 / me_range=24 / chroma_me=1 / trellis=2 / 8x8dct=0 / cqm=0 / deadzone=21,11 / fast_pskip=1 / chroma_qp_offset=-2 / threads=8 / lookahead_threads=1 / sliced_threads=0 / nr=0 / decimate=1 / interlaced=0 / bluray_compat=0 / stitchable=1 / constrained_intra=0 / bframes=2 / b_pyramid=0 / b_adapt=2 / b_bias=0 / direct=3 / weightb=1 / open_gop=0 / weightp=2 / keyint=250 / keyint_min=23 / scenecut=0 / intra_refresh=0 / rc_lookahead=48 / rc=2pass / mbtree=1 / bitrate=7150 / ratetol=1.0 / qcomp=0.50 / qpmin=6 / qpmax=51 / qpstep=4 / cplxblur=20.0 / qblur=0.5 / vbv_maxrate=10725 / vbv_bufsize=14300 / nal_hrd=vbr / filler=0 / ip_ratio=1.40 / aq=1:1.00
Default : Yes
Forced : No

Audio
ID : 2
Format : E-AC-3
Format/Info : Enhanced Audio Coding 3
Format settings, Endianness : Big
Codec ID : A_EAC3
Duration : 30 min 52 s
Bit rate mode : Constant
Bit rate : 640 kb/s
Channel(s) : 6 channels
Channel positions : Front: L C R, Side: L R, LFE
Sampling rate : 48.0 kHz
Frame rate : 187.500 FPS (256 SPF)
Compression mode : Lossy
Stream size : 141 MiB (8%)
Title : English
Language : English
Service kind : Complete Main
Default : Yes
Forced : No

Text #1
ID : 3
Format : UTF-8
Codec ID : S_TEXT/UTF8
Codec ID/Info : UTF-8 Plain Text
Duration : 29 min 29 s
Bit rate : 120 b/s
Count of elements : 673
Stream size : 26.1 KiB (0%)
Title : English [Full]
Language : English
Default : No
Forced : No

Text #2
ID : 4
Format : UTF-8
Codec ID : S_TEXT/UTF8
Codec ID/Info : UTF-8 Plain Text
Duration : 29 min 55 s
Bit rate : 92 b/s
Count of elements : 564
Stream size : 20.2 KiB (0%)
Title : Castilian [Full]
Language : Spanish
Default : No
Forced : No

Text #3
ID : 5
Format : UTF-8
Codec ID : S_TEXT/UTF8
Codec ID/Info : UTF-8 Plain Text
Duration : 29 min 55 s
Bit rate : 90 b/s
Count of elements : 572
Stream size : 19.9 KiB (0%)
Title : Spanish [Full]
Language : Spanish
Default : No
Forced : No

Text #4
ID : 6
Format : UTF-8
Codec ID : S_TEXT/UTF8
Codec ID/Info : UTF-8 Plain Text
Duration : 29 min 55 s
Bit rate : 86 b/s
Count of elements : 595
Stream size : 18.9 KiB (0%)
Title : French [Full]
Language : French
Default : No
Forced : No

Text #5
ID : 7
Format : UTF-8
Codec ID : S_TEXT/UTF8
Codec ID/Info : UTF-8 Plain Text
Duration : 29 min 55 s
Bit rate : 85 b/s
Count of elements : 585
Stream size : 18.8 KiB (0%)
Title : German [Full]
Language : German
Default : No
Forced : No

Text #6
ID : 8
Format : UTF-8
Codec ID : S_TEXT/UTF8
Codec ID/Info : UTF-8 Plain Text
Duration : 29 min 55 s
Bit rate : 97 b/s
Count of elements : 579
Stream size : 21.4 KiB (0%)
Title : Italian [Full]
Language : Italian
Default : No
Forced : No

Text #7
ID : 9
Format : UTF-8
Codec ID : S_TEXT/UTF8
Codec ID/Info : UTF-8 Plain Text
Duration : 29 min 56 s
Bit rate : 83 b/s
Count of elements : 534
Stream size : 18.4 KiB (0%)
Title : Portuguese [Full]
Language : Portuguese
Default : No
Forced : No

Text #8
ID : 10
Format : UTF-8
Codec ID : S_TEXT/UTF8
Codec ID/Info : UTF-8 Plain Text
Duration : 29 min 55 s
Bit rate : 84 b/s
Count of elements : 567
Stream size : 18.5 KiB (0%)
Title : Brazilian Portuguese [Full]
Language : Portuguese
Default : No
Forced : No

Text #9
ID : 11
Format : UTF-8
Codec ID : S_TEXT/UTF8
Codec ID/Info : UTF-8 Plain Text
Duration : 29 min 55 s
Bit rate : 80 b/s
Count of elements : 543
Stream size : 17.7 KiB (0%)
Title : Polish [Full]
Language : Polish
Default : No
Forced : No

Text #10
ID : 12
Format : UTF-8
Codec ID : S_TEXT/UTF8
Codec ID/Info : UTF-8 Plain Text
Duration : 29 min 55 s
Bit rate : 91 b/s
Count of elements : 578
Stream size : 20.0 KiB (0%)
Title : Turkish [Full]
Language : Turkish
Default : No
Forced : No

Text #11
ID : 13
Format : UTF-8
Codec ID : S_TEXT/UTF8
Codec ID/Info : UTF-8 Plain Text
Duration : 29 min 55 s
Bit rate : 85 b/s
Count of elements : 474
Stream size : 18.8 KiB (0%)
Title : Swedish [Full]
Language : Swedish
Default : No
Forced : No

Text #12
ID : 14
Format : UTF-8
Codec ID : S_TEXT/UTF8
Codec ID/Info : UTF-8 Plain Text
Duration : 29 min 55 s
Bit rate : 85 b/s
Count of elements : 507
Stream size : 18.7 KiB (0%)
Title : Danish [Full]
Language : Danish
Default : No
Forced : No

Text #13
ID : 15
Format : UTF-8
Codec ID : S_TEXT/UTF8
Codec ID/Info : UTF-8 Plain Text
Duration : 29 min 55 s
Bit rate : 78 b/s
Count of elements : 524
Stream size : 17.3 KiB (0%)
Title : Finnish [Full]
Language : Finnish
Default : No
Forced : No

Text #14
ID : 16
Format : UTF-8
Codec ID : S_TEXT/UTF8
Codec ID/Info : UTF-8 Plain Text
Duration : 29 min 28 s
Bit rate : 78 b/s
Count of elements : 493
Stream size : 16.9 KiB (0%)
Title : Dutch [Full]
Language : Dutch
Default : No
Forced : No

Text #15
ID : 17
Format : UTF-8
Codec ID : S_TEXT/UTF8
Codec ID/Info : UTF-8 Plain Text
Duration : 29 min 55 s
Bit rate : 75 b/s
Count of elements : 515
Stream size : 16.4 KiB (0%)
Title : Norwegian [Full]
Language : Norwegian
Default : No
Forced : No

Text #16
ID : 18
Format : UTF-8
Codec ID : S_TEXT/UTF8
Codec ID/Info : UTF-8 Plain Text
Duration : 29 min 55 s
Bit rate : 146 b/s
Count of elements : 563
Stream size : 32.1 KiB (0%)
Title : Russian [Full]
Language : Russian
Default : No
Forced : No

Text #17
ID : 19
Format : UTF-8
Codec ID : S_TEXT/UTF8
Codec ID/Info : UTF-8 Plain Text
Duration : 29 min 55 s
Bit rate : 90 b/s
Count of elements : 494
Stream size : 19.8 KiB (0%)
Title : Hungarian [Full]
Language : Hungarian
Default : No
Forced : No

Text #18
ID : 20
Format : UTF-8
Codec ID : S_TEXT/UTF8
Codec ID/Info : UTF-8 Plain Text
Duration : 29 min 55 s
Bit rate : 141 b/s
Count of elements : 563
Stream size : 31.1 KiB (0%)
Title : Greek [Full]
Language : Greek
Default : No
Forced : No

Text #19
ID : 21
Format : UTF-8
Codec ID : S_TEXT/UTF8
Codec ID/Info : UTF-8 Plain Text
Duration : 29 min 55 s
Bit rate : 149 b/s
Count of elements : 549
Stream size : 32.7 KiB (0%)
Title : Hebrew [Full]
Language : Hebrew
Default : No
Forced : No

Text #20
ID : 22
Format : UTF-8
Codec ID : S_TEXT/UTF8
Codec ID/Info : UTF-8 Plain Text
Duration : 29 min 55 s
Bit rate : 167 b/s
Count of elements : 581
Stream size : 36.7 KiB (0%)
Title : Arabic [Full]
Language : Arabic
Default : No
Forced : No

Text #21
ID : 23
Format : UTF-8
Codec ID : S_TEXT/UTF8
Codec ID/Info : UTF-8 Plain Text
Duration : 29 min 55 s
Bit rate : 100 b/s
Count of elements : 553
Stream size : 22.0 KiB (0%)
Title : Romanian [Full]
Language : Romanian
Default : No
Forced : No

Text #22
ID : 24
Format : UTF-8
Codec ID : S_TEXT/UTF8
Codec ID/Info : UTF-8 Plain Text
Duration : 29 min 55 s
Bit rate : 90 b/s
Count of elements : 508
Stream size : 19.9 KiB (0%)
Title : Czech [Full]
Language : Czech
Default : No
Forced : No

Text #23
ID : 25
Format : UTF-8
Codec ID : S_TEXT/UTF8
Codec ID/Info : UTF-8 Plain Text
Duration : 29 min 55 s
Bit rate : 82 b/s
Count of elements : 579
Stream size : 18.1 KiB (0%)
Title : Indonesian [Full]
Language : Indonesian
Default : No
Forced : No

Text #24
ID : 26
Format : UTF-8
Codec ID : S_TEXT/UTF8
Codec ID/Info : UTF-8 Plain Text
Duration : 29 min 55 s
Bit rate : 116 b/s
Count of elements : 566
Stream size : 25.6 KiB (0%)
Title : Vietnamese [Full]
Language : Vietnamese
Default : No
Forced : No

Text #25
ID : 27
Format : UTF-8
Codec ID : S_TEXT/UTF8
Codec ID/Info : UTF-8 Plain Text
Duration : 29 min 55 s
Bit rate : 219 b/s
Count of elements : 582
Stream size : 48.0 KiB (0%)
Title : Thai [Full]
Language : Thai
Default : No
Forced : No

Text #26
ID : 28
Format : UTF-8
Codec ID : S_TEXT/UTF8
Codec ID/Info : UTF-8 Plain Text
Duration : 29 min 55 s
Bit rate : 116 b/s
Count of elements : 595
Stream size : 25.6 KiB (0%)
Title : Korean [Full]
Language : Korean
Default : No
Forced : No

Text #27
ID : 29
Format : UTF-8
Codec ID : S_TEXT/UTF8
Codec ID/Info : UTF-8 Plain Text
Duration : 29 min 55 s
Bit rate : 90 b/s
Count of elements : 582
Stream size : 19.9 KiB (0%)
Title : Chinese (Simplified) [Full]
Language : Chinese
Default : No
Forced : No

Text #28
ID : 30
Format : UTF-8
Codec ID : S_TEXT/UTF8
Codec ID/Info : UTF-8 Plain Text
Duration : 29 min 55 s
Bit rate : 93 b/s
Count of elements : 578
Stream size : 20.5 KiB (0%)
Title : Chinese (Traditional) [Full]
Language : Chinese
Default : No
Forced : No

Text #29
ID : 31
Format : UTF-8
Codec ID : S_TEXT/UTF8
Codec ID/Info : UTF-8 Plain Text
Duration : 29 min 55 s
Bit rate : 100 b/s
Count of elements : 651
Stream size : 22.0 KiB (0%)
Title : Japanese [Full]
Language : Japanese
Default : No
Forced : No





Southern Survival S01E04


Southern Survival S01E04


Southern Survival S01E04


Southern Survival S01E04


Southern Survival S01E04