The Great S01E09

TV Series
The Great S01E09

The Great S01E09
WEBRip | MKV | 1280x720 | English | H264 @ 1846 kbps | E-AC-3 @ 256 kbps | 53 min 52 s | 811 MiB
Subtitles: Español, English
Genre: Comedy, Drama


A genre-bending, anti-historical ride through 18th century Russia following the rise of Catherine the Nothing to Catherine the Great and her explosive relationship with husband Peter, the emperor of Russia.

ff81b1a79c1de9240a58274b9efe7da2.mkv (810.8 MB)



General
Unique ID : 193599961338130137431076110241786245489 (0x91A5FF0C07FCF665BCFD6A1DDC6C3171)
Complete name : ./ff81b1a79c1de9240a58274b9efe7da2.mkv
Format : Matroska
Format version : Version 4 / Version 2
File size : 811 MiB
Duration : 53 min 52 s
Overall bit rate : 2 104 kb/s
Encoded date : UTC 2020-05-15 04:08:14
Writing application : mkvmerge v44.0.0 ('Domino') 64-bit
Writing library : libebml v1.3.10 + libmatroska v1.5.2

Video
ID : 1
Format : AVC
Format/Info : Advanced Video Codec
Format profile : High@L3.1
Format settings : CABAC / 5 Ref Frames
Format settings, CABAC : Yes
Format settings, RefFrames : 5 frames
Codec ID : V_MPEG4/ISO/AVC
Duration : 53 min 52 s
Bit rate : 1 846 kb/s
Width : 1 280 pixels
Height : 720 pixels
Display aspect ratio : 16:9
Frame rate mode : Constant
Frame rate : 23.976 (24000/1001) FPS
Color space : YUV
Chroma subsampling : 4:2:0
Bit depth : 8 bits
Scan type : Progressive
Bits/(Pixel*Frame) : 0.084
Stream size : 711 MiB (88%)
Language : English
Default : Yes
Forced : No

Audio
ID : 2
Format : E-AC-3
Format/Info : Enhanced Audio Coding 3
Format settings, Endianness : Big
Codec ID : A_EAC3
Duration : 53 min 52 s
Bit rate mode : Constant
Bit rate : 256 kb/s
Channel(s) : 6 channels
Channel positions : Front: L C R, Side: L R, LFE
Sampling rate : 48.0 kHz
Frame rate : 187.500 FPS (256 SPF)
Compression mode : Lossy
Stream size : 98.6 MiB (12%)
Language : English
Service kind : Complete Main
Default : Yes
Forced : No

Text #1
ID : 3
Format : UTF-8
Codec ID : S_TEXT/UTF8
Codec ID/Info : UTF-8 Plain Text
Duration : 53 min 45 s
Bit rate : 88 b/s
Count of elements : 1043
Stream size : 34.8 KiB (0%)
Title : English
Language : English
Default : No
Forced : No

Text #2
ID : 4
Format : UTF-8
Codec ID : S_TEXT/UTF8
Codec ID/Info : UTF-8 Plain Text
Duration : 51 min 51 s
Bit rate : 89 b/s
Count of elements : 954
Stream size : 34.0 KiB (0%)
Title : Spanish; Castilian
Language : Spanish
Default : No
Forced : No





The Great S01E09


The Great S01E09


The Great S01E09


The Great S01E09


The Great S01E09